Quick Browse
Movies
TV shows
Music
Games
Applications
Anime
Other
Facebook
Advertising

Friends
Torrent Download
Movie4u
1337x.to
Torrent Downloads




Verified torrent Waka Flocka ft Roscoe Dash and Wale - No Hands [KingPinVideos]


    Seeders : 71      Leechers : 2

Trackers List

Tracker NameLast CheckStatusSeedersLeechers




Torrent File Content (5 files)


Waka Flocka Flame ft Roscoe Dash and Wale - No Hands [KingPinVideos]
     Waka Flocka ft Roscoe Dash and Wale - No Hands [KingPinVideos].mpg -
94.43 MB

     Waka Flocka ft Roscoe Dash and Wale - No Hands [KingPinVideos].nfo -
2.3 KB

     Waka Flocka ft Roscoe Dash and Wale - No Hands [KingPinVideos].txt -
1.65 KB

     Torrent downloaded from Demonoid.com.txt -
47 bytes

     Torrent Downloaded from Limetorrents.com.txt -
46 bytes



Description



http://img842.imageshack.us/img842/4158/wakaflockanohands.png


http://img818.imageshack.us/img818/253/wakaflockanohands2.png


[code]General
Complete name : Waka Flocka ft Roscoe Dash and Wale - No Hands [KingPinVideos].mpg
Format : MPEG-PS
File size : 94.4 MiB
Duration : 4mn 37s
Overall bit rate : 2 856 Kbps
Writing library : encoded by TMPGEnc 4.0 XPress Version. 4.7.4.299

Video
ID : 224 (0xE0)
Format : MPEG Video
Format version : Version 1
Format settings, BVOP : Yes
Format settings, Matrix : Default
Duration : 4mn 37s
Bit rate mode : Constant
Bit rate : 2 615 Kbps
Nominal bit rate : 2 700 Kbps
Width : 384 pixels
Height : 208 pixels
Display aspect ratio : 16:9
Frame rate : 29.970 fps
Resolution : 8 bits
Scan type : Progressive
Bits/(Pixel*Frame) : 1.092
Stream size : 86.5 MiB (92%)
Writing library : TMPGEnc XPress 4.7.4.299

Audio
ID : 192 (0xC0)
Format : MPEG Audio
Format version : Version 1
Format profile : Layer 2
Duration : 4mn 37s
Bit rate mode : Constant
Bit rate : 128 Kbps
Channel(s) : 2 channels
Sampling rate : 48.0 KHz
Stream size : 4.23 MiB (4%)[/code]

Related torrents

Torrent NameAddedSizeSeedLeechHealth
1 Year+ - in Music71.17 MB02
1 Year+ - in Music5.73 MB00
1 Year+ - in Other3.79 MB02
1 Year+ - in Music4.89 MB00
1 Year+ - in Music3.77 MB01

Comments (0 Comments)




Please login or create a FREE account to post comments

Latest Searches

| The Disappointments Room 2016 HC HDRip XviD AC3 EVO | Czech yenna | nena super t | hyper light drifter gog linux | digimon zero two 02 | jada stevens yoga | duchessa dei diavoli | Final Boss Excision Dion Timmer | Chauranga | Convicts Women |