Quick Browse
Movies
TV shows
Music
Games
Applications
Anime
Other

Donate and Support

Friends
Torrents.me
Torrent Download
Free Movies
1337x
RARBG
Torrent Downloads

Verified torrent Wanted.2008.BRRip.XviD.AC3[5.1]-WTRG


    Seeders : 0      Leechers : 0
Hash :D6A5D8D8F83E1B72FA3F95AD09AE3ADF5C9F3769
Added :1 Year+ by SG16031994Verified torrent uploader in Movies
Size :1.53 GB
Stream :Watch Full Movies Online @ Movie4u
Share :


Wanted.2008.BRRip.XviD.AC3[5.1]-WTRG
Anonymous and Direct Download 300GB+ free







Warning! Do not Download Torrents Without a VPN!
Your IP Address is .   And Location is
Your Internet Provider and Government can track your torrent Activity!  Hide your IP ADDRESS with a VPN!
We Strongly Recommend Using SpyOFF Torrent VPN to Anonymize your Torrenting. It's FREE For 15 Days!

Note :

Please Update (Trackers Info) Before Downloading Torrents to See Updated Seeders And Leechers for Batter Download Speed.

Trackers List

Tracker NameLast CheckStatusSeedersLeechers
udp://tracker.coppersurfer.tk:803 months agosuccess00
udp://tracker.ilibr.org:6969/announce3 months agosuccess00
udp://inferno.demonoid.com:3398/announce3 months agosuccess00
udp://ipv4.tracker.harry.lu:80/announce3 months agosuccess00
udp://9.rarbg.com:2710/announce3 months agosuccess00
http://tracker.trackerfix.com/announce3 months agosuccess00




Torrent File Content (2 files)


wanted
     Wanted.mp4 -
1.53 GB

     Torrent downloaded from Demonoid.com.txt -
47 bytes



Description



http://i36.tinypic.com/293yum0.jpg

Wanted.2008.BRRip.XviD.AC3[5.1]-WTRG
http://www.impawards.com/2008/posters/wanted_ver10_xlg.jpg

http://myph.us/pics/64623_8we5inyn.png

General

Format : MP4
Format/Info : Audio Video Interleave
File size : 1.36 GiB
Duration : 1h 50mn
Overall bit rate : 1 773 Kbps
Writing application : VirtualDubMod 1.5.10.2 (build 2542/release)
Writing library : VirtualDubMod build 2542/release

Video
Format : MPEG-4 Visual
Format profile : Streaming [email protected]
Format settings, BVOP : Yes
Format settings, QPel : No
Format settings, GMC : No warppoints
Format settings, Matrix : Default (MPEG)
Codec ID : XVID
Codec ID/Hint : XviD
Duration : 1h 50mn
Bit rate : 1 316 Kbps
Width : 720 pixels
Height : 304 pixels
Display aspect ratio : 2.35
Frame rate : 23.976 fps
Resolution : 24 bits
Colorimetry : 4:2:0
Scan type : Progressive
Bits/(Pixel*Frame) : 0.251
Stream size : 1.01 GiB (74%)
Writing library : XviD 1.2.1 (UTC 2008-12-04)

Audio
Format : AC-3
Format/Info : Audio Coding 3
Codec ID : 2000
Duration : 1h 50mn
Bit rate mode : Constant
Bit rate : 448 Kbps
Channel(s) : 6 channels
Channel positions : Front: L C R, Surround: L R, LFE
Sampling rate : 48.0 KHz
Stream size : 353 MiB (25%)
Alignment : Split accross interleaves
Interleave, duration : 42 ms (1.00 video frame)
Interleave, preload duration : 500 ms
http://i49.tinypic.com/25ic0hd.jpg

A young man finds out his long lost father is an assassin. When his father is murdered, the son is recruited into his father's old organization and trained by a man named Sloan to follow in his dad's footsteps.
http://i48.tinypic.com/9k1gty.png

James McAvoy ... Wesley
Morgan Freeman ... Sloan
Angelina Jolie ... Fox
Terence Stamp ... Pekwarsky
Thomas Kretschmann ... Cross
Common ... The Gunsmith
Kristen Hager ... Cathy
Marc Warren ... The Repairman
David O'Hara ... Mr. X (as David Patrick O'Hara)
http://i50.tinypic.com/153r3h2.jpg

http://i556.photobucket.com/albums/ss5/VLiS-/WTD/1.png

http://i556.photobucket.com/albums/ss5/VLiS-/WTD/2.png

http://i556.photobucket.com/albums/ss5/VLiS-/WTD/3.png

http://i556.photobucket.com/albums/ss5/VLiS-/WTD/4.png

http://i556.photobucket.com/albums/ss5/VLiS-/WTD/5.png

http://i35.tinypic.com/148j4nr.jpg

http://i36.tinypic.com/2dl2og3.jpg

Related torrents

Torrent NameAddedSizeSeedLeechHealth
1 Year+ - in Movies1.79 GB00
1 Year+ - in Movies1.82 GB02
1 Year+ - in Movies1.33 GB00
1 Year+ - in Movies1.36 GB247
Last Month - in Movies820.83 MB00

Comments (1 comment)




SG16031994
» Torrent Uploader Torrent Uploader

Added 1 Year+
Enjoy All....
Please login or create a FREE account to post comments

Latest Searches

| Beautiful Blond whoops on a man in a 100 competitve wrestling matchup | family therapy brat | helplessteens E46 | the star gazers | Udemy The Unreal | Amia Miley drillin | Fatima 1080p | queen of the south S02E07 fleet | cunt licking slut | Virtual Revolution 2 |