Quick Browse
Movies
TV shows
Music
Games
Applications
Anime
Other
Facebook
Advertising

Friends
Torrent Download
Movie4u
1337x.to
Torrent Downloads




Watchmen 2009 iTALiAN BDRip XviD-Republic [ultimafrontiera]


    Seeders : 86      Leechers : 127

Trackers List

Tracker NameLast CheckStatusSeedersLeechers




Torrent File Content (2 files)


Watchmen.2009.iTALiAN.BDRip.XviD-Republic
     Watchmen.2009.iTALiAN.BDRip.XviD-Republic.CD1.avi -
700.04 MB

     Watchmen.2009.iTALiAN.BDRip.XviD-Republic.CD2.avi -
699.9 MB



Description



http://pic.leech.it/i/59503/1c9ed42watchmen.jpg






Titolo originale: Watchmen


Nazione: U.S.A., Regno Unito, Canada


Anno: 2009


Genere: Azione, Fantastico, Thriller, Fantascienza


Durata: 162'


Regia: Zack Snyder





Produzione: Warner Bros. Pictures, Paramount Pictures, Lawrence Gordon Productions, DC Comics


Distribuzione: UIP


Data di uscita: 06 Marzo 2009 (cinema)





Cast





Jeffrey Dean Morgan, Carla Gugino, Malin Akerman, Billy Crudup, Patrick Wilson, Jackie Earle Haley,


Matthew Goode, Stephen McHattie, Matt Frewer, Danny Woodburn





Trama





Avventuroso, misterioso e complesso, "Watchmen" è ambientato in una realtà alternativa del 1985, in America,


dove un gruppo di supereroi in costume è parte integrante della realtà sociale quotidiana, e l'"Orologio dell'Apocalisse" -


che rappresenta la tensione fra gli USA e l'Unione Sovietica - segna sempre cinque minuti alla mezzanotte. Quando uno dei suoi ex


colleghi viene ucciso, il vigilante mascherato di nome Rorschach, non più in auge ma pur sempre energico e determinato, si attiva


per scoprire il complotto che mira ad uccidere e a screditare tutti i supereroi passati e presenti. Mentre riallaccia i rapporti


con la sua ex legione di combattenti - un rozzo gruppo di supereroi a riposo, di cui solo uno possiede dei veri poteri - Rorschach


scopre una vasta e inquietante cospirazione legata al loro passato, che potrebbe provocare una vera catastrofe. La loro missione è


vegliare sull'umanità. Ma chi veglierà sui Watchmen?





Trailer





http://www.youtube.com/watch?v=WpqiVIhkEZ0





INFO SUL FILE





Rip da Blu-ray





Dati Tecnici





Format : AVI


Format/Info : Audio Video Interleave


File size : 700 MiB


Duration : 1h 18mn


Overall bit rate : 1 243 Kbps


Writing application : VirtualDubMod 1.5.10.2 (build 2540/release)


Writing library : VirtualDubMod build 2540/release








Video





ID : 0


Format : MPEG-4 Visual


Format profile : [email protected]


Format settings, BVOP : No


Format settings, QPel : No


Format settings, GMC : No warppoints


Format settings, Matrix : Default (MPEG)


Codec ID : XVID


Codec ID/Hint : XviD


Duration : 1h 18mn


Bit rate : 787 Kbps


Width : 656 pixels


Height : 272 pixels


Display aspect ratio : 2.412


Frame rate : 23.976 fps


Resolution : 24 bits


Colorimetry : 4:2:0


Scan type : Progressive


Bits/(Pixel*Frame) : 0.184


Stream size : 443 MiB (63%)


Writing library : XviD 1.2.1 (UTC 2008-12-04)








Audio





ID : 1


Format : AC-3


Format/Info : Audio Coding 3


Codec ID : 2000


Duration : 1h 18mn


Bit rate mode : Constant


Bit rate : 448 Kbps


Channel(s) : 6 channels


Channel positions : Front: L C R, Surround: L R, LFE


Sampling rate : 48.0 KHz


Video delay : 22ms


Stream size : 252 MiB (36%)


Alignment : Split accross interleaves


Interleave, duration : 42 ms (1.00 video frame)


Interleave, preload duration : 500 ms

Related torrents

Torrent NameAddedSizeSeedLeechHealth
1 Year+ - in Movies1.37 GB1245
1 Year+ - in Movies1.37 GB16
1 Year+ - in Movies1.37 GB23
1 Year+ - in Movies700.14 MB2680
1 Year+ - in Movies1.37 GB48

Comments (0 Comments)




Please login or create a FREE account to post comments

Latest Searches

| backstrom s01e09 hdtv x264 killers rarbg | Family tv series | g Mac full album | this little girls | top songs 2013 billboard | la la gang del bosco | avatar the legend of korra complete series | dirty flix 2016 | Lucka Czech Experiment 5 | versiunea 1 |