Quick Browse
Movies
TV shows
Music
Games
Applications
Anime
Other
Facebook
Friends
Torrent Download
Free Movies
1337x.to
Torrent Downloads

Verified torrent Water For Elephants 2011 R5 LiNE XViD - IMAGiNE


    Seeders : 1      Leechers : 1
Hash :A1DD8014493FFC4EFD276D5F5EBBD1BFBA3CD825
Added :1 Year+ by memory100Verified torrent uploader in Movies
Size :1.66 GB
Stream :Watch Full Movies Online @ Movie4u
Share :


Water For Elephants 2011 R5 LiNE XViD - IMAGiNE
Anonymous and Direct Download 300GB+ free







Warning! Do not Download Torrents Without a VPN!
Your IP Address is .   And Location is
Your Internet Provider and Government can track your torrent Activity!  Hide your IP ADDRESS with a VPN!
We Strongly Recommend Using SpyOFF Torrent VPN to Anonymize your Torrenting. It's FREE For 15 Days!

Note :

Please Update (Trackers Info) Before Downloading Torrents to See Updated Seeders And Leechers for Batter Download Speed.

Trackers List

Tracker NameLast CheckStatusSeedersLeechers




Torrent File Content (9 files)


Water For Elephants 2011 R5 LiNE XViD - IMAGiNE
     Budget seedboxs.txt -
44 bytes

     NW RG.nfo -
12.96 KB

     Torrent downloaded from Demonoid.me.txt -
46 bytes

     Water For Elephants 2011 R5 LiNE XViD - IMAGiNE SAMPLE.avi -
10.47 MB

     Water For Elephants 2011 R5 LiNE XViD - IMAGiNE.NFO -
4.67 KB

     Water For Elephants 2011 R5 LiNE XViD - IMAGiNE.avi -
1.65 GB

     dreamthe.net.txt -
91 bytes

     northernwarriors.net.txt -
135 bytes

     sceneunderground.org.txt -
77 bytes



Description



http://img864.imageshack.us/img864/9352/whiteot.jpg

[code]
Water For Elephants 2011 R5 LiNE XViD - IMAGiNE

Ripper ...........: IMAGiNE IMDB Rating.......: 7.0/10
Video Codec.......: XVID Release Date......: 21/05/11
Audio Codec.......: MP3 Theatre Date......: 22/04/11
Audio Bitrate.....: 128 Runtime.......: 1h 55mn
Subtitles.........: NIL Language..........: ENGLISH
Resolution......: 720 x 304 IMDb URL..........: http://www.imdb.com/title/tt1067583/

DETAILS:

Video
ID : 0
Format : MPEG-4 Visual
Format profile : Advanced [email protected]
Format settings, BVOP : 2
Format settings, QPel : No
Format settings, GMC : No warppoints
Format settings, Matrix : Default (MPEG)
Muxing mode : Packed bitstream
Codec ID : XVID
Codec ID/Hint : XviD
Duration : 1h 55mn
Bit rate : 1 914 Kbps
Width : 720 pixels
Height : 304 pixels
Display aspect ratio : 2.35:1
Frame rate : 25.000 fps
Color space : YUV
Chroma subsampling : 4:2:0
Bit depth : 8 bits
Scan type : Progressive
Compression mode : Lossy
Bits/(Pixel*Frame) : 0.350
Stream size : 1.54 GiB (93%)
Writing library : XviD 61

Audio
ID : 1
Format : MPEG Audio
Format version : Version 1
Format profile : Layer 3
Mode : Joint stereo
Mode extension : MS Stereo
Codec ID : 55
Codec ID/Hint : MP3
Duration : 1h 55mn
Bit rate mode : Constant
Bit rate : 128 Kbps
Channel(s) : 2 channels
Sampling rate : 44.1 KHz
Compression mode : Lossy
Stream size : 106 MiB (6%)
Alignment : Split accross interleaves
Interleave, duration : 40 ms (1.00 video frame)

Plot:
A veterinary student abandons his studies after his parents are killed and joins a traveling circus as their vet.

SOURCES:
VIDEO: ................. Water For Elephants DVD5 ELEKTRI4KA Thanx MAte
AUDIO: ................. Thanx Matey

NOTES:
IMAGiNE bringing you another release..........
Water For Elephants 2011 R5.......
Ok here we are with a nice R5.....

Video was good so not alot of work was needed thereMade a script to crop resize and so on....
Audio is LiNE we filtered synced and remuxed to our encode

Enjoy Folks!
[/code]
Screens:
http://img837.imageshack.us/img837/9907/51210760.jpg

http://img215.imageshack.us/img215/6024/82696795.jpg

http://img849.imageshack.us/img849/9151/44070215.jpg

http://img638.imageshack.us/img638/8480/18157213.jpg

http://img808.imageshack.us/img808/4789/cee4aac3633a.jpg

Related torrents

Torrent NameAddedSizeSeedLeechHealth
1 Comments
1 Good
1 Year+ - in Movies1.66 GB4144
1 Year+ - in Movies1.66 GB15
1 Year+ - in Movies383.53 MB00
1 Year+ - in Movies604.14 MB177
1 Year+ - in Movies1.15 GB215

Comments (0 Comments)




Please login or create a FREE account to post comments

Latest Searches

| Unforgiven 1992 grym | suicide katharsis | epub escort | the lisbon lions | Hamd Production | out time man | Franz Biber | the good wife hdtv x264 ettv | the cheatin | alison tyler wifes |