Quick Browse
Movies
TV shows
Music
Games
Applications
Anime
Other

Donate and Support

Friends
Torrents.me
Torrent Download
Free Movies
1337x
RARBG
Torrent Downloads

Water for Elephants 2011 R5 X264-BioniK


    Seeders : 85      Leechers : 21
Hash :E2C2B3FB5FEF6C6A79CF11E2C6E4652C0440A873
Added :1 Year+ by bionik2011 in Movies
Size :861.93 MB
Stream :Watch Full Movies Online @ Movie4u
Share :


Water for Elephants 2011 R5 X264-BioniK
Anonymous and free Direct Download







Warning! Do not Download Torrents Without a VPN!
Your IP Address is .   And Location is
Your Internet Provider and Government can track your torrent Activity!  Hide your IP ADDRESS with a VPN!
We Strongly Recommend Using SpyOFF Torrent VPN to Anonymize your Torrenting. It's FREE For 15 Days!

Note :

Please Update (Trackers Info) Before Downloading Torrents to See Updated Seeders And Leechers for Batter Download Speed.

Trackers List

Tracker NameLast CheckStatusSeedersLeechers




Torrent File Content (2 files)


Water for Elephants 2011 R5 X264-BioniK
     Water for Elephants 2011 R5 X264-BioniK.m4v -
861.93 MB

     Torrent downloaded from Demonoid.me.txt -
46 bytes



Description



http://img146.imageshack.us/img146/1013/s1kodf.jpg


[url]http://www.imdb.com/title/tt1067583/[/url]

STORYLINE

Jacob Jankowski is about to take his final exams in veterinary medicine at Cornell when his parents are killed in a car accident. He drops out and joins Benzini Brothers, a second-rate traveling circus trying to survive during the Depression.

CAST

Reese Witherspoon ... Marlena
Robert Pattinson ... Jacob
Christoph Waltz ... August
Paul Schneider ... Charlie
Jim Norton ... Camel
Mark Povinelli ... Kinko / Walter
Richard Brake ... Grady

INFO

Format : MPEG-4
Format profile : Base Media / Version 2
Codec ID : mp42
File size : 862 MiB
Duration : 1h 55mn
Overall bit rate : 1 044 Kbps
Encoder : BioniK

Video
ID : 1
Format : AVC
Format/Info : Advanced Video Codec
Format profile : [email protected]
Format settings, CABAC : Yes
Format settings, ReFrames : 4 frames
Codec ID : avc1
Codec ID/Info : Advanced Video Coding
Duration : 1h 55mn
Bit rate mode : Variable
Bit rate : 900 Kbps
Width : 720 pixels
Height : 340 pixels
Display aspect ratio : 2.2:1
Frame rate mode : Variable
Frame rate : 25.000 fps
Minimum frame rate : 19.969 fps
Maximum frame rate : 47.695 fps
Color space : YUV
Chroma subsampling : 4:2:0
Bit depth : 8 bits
Scan type : Progressive
Bits/(Pixel*Frame) : 0.147
Stream size : 725 MiB (84%)
Writing library : x264 core 112

Audio
ID : 2
Format : AAC
Format/Info : Advanced Audio Codec
Format profile : LC
Codec ID : 40
Duration : 1h 55mn
Bit rate mode : Variable
Bit rate : 160 Kbps
Maximum bit rate : 188 Kbps
Channel(s) : 2 channels
Channel positions : Front: L R
Sampling rate : 48.0 KHz
Compression mode : Lossy
Stream size : 132 MiB (15%)
Language : English

SCREENSHOTS

http://img807.imageshack.us/img807/4071/vlcsnap2011052212h09m32.png

http://img6.imageshack.us/img6/2976/vlcsnap2011052212h09m54.png

http://img828.imageshack.us/img828/488/vlcsnap2011052212h10m31.png

http://img832.imageshack.us/img832/3850/vlcsnap2011052212h10m34.png


http://img850.imageshack.us/img850/7124/cooltext523373872.png



Related torrents

Torrent NameAddedSizeSeedLeechHealth
1 Comments
1 Good
1 Year+ - in Movies4.38 GB34
1 Year+ - in Movies893.47 MB121
1 Year+ - in Movies893.47 MB1107
1 Year+ - in Movies4.2 GB161
1 Year+ - in Movies383.53 MB00

Comments (1 comment)




Mslantarona
» Downloaded this torrent Downloaded this torrent » Voted Good Voted Good for this torrent for this torrent

Added 1 Year+
Very good quality.thanks for the upload
Please login or create a FREE account to post comments

Latest Searches

| annabelle creation 2017 720p dual audio | nl The Messengers 2015 | jukujo 5726 | Outlander S01E10 HDTV x264 KILLERS eztv | brazzers latex | enrique iglesias no me digas que no ft wisin yandel | david bowie panic in detroit | tipard dvd creator crack | pixels hr2dvd | patron del mal hd 30 |