Quick Browse
Movies
TV shows
Music
Games
Applications
Anime
Other
Facebook
Friends
Torrent Download
Movie4u
1337x.to
Torrent Downloads

Verified torrent We.Bought.a.Zoo.2011.ENGLISH.TS.XviD-NOVA


    Seeders : 1      Leechers : 5
Hash :841D99535C621BD586477C71D87C73FBE48F8F4A
Added :1 Year+ by robyrsVerified torrent uploader in Movies
Size :813.55 MB
Stream :WATCH ONLINE @ Movie4u


We.Bought.a.Zoo.2011.ENGLISH.TS.XviD-NOVA
Anonymous and Direct Download 300GB+ free








Trackers List

Tracker NameLast CheckStatusSeedersLeechers




Torrent File Content (7 files)


We.Bought.a.Zoo.2011.ENGLISH.TS.XviD-NOVA
     We.Bought.a.Zoo.2011.ENGLISH.TS.XviD-NOVA.avi -
773.83 MB

     Sub FILE compress.sub -
14.7 MB

     Quick-RUSSIAN.sub -
8.34 MB

     X1360 French.sub -
8.34 MB

     X1360 iTA.sub -
8.34 MB

     Torrent downloaded from AhaShare.com.txt -
59 bytes

     Torrent downloaded from Demonoid.me.txt -
46 bytes



Description



We.Bought.a.Zoo.2011.ENGLISH.TS.XviD-NOVA

http://www.imdb.com/title/tt1389137/

Comedy | Drama | Family Film

Story : Set in Southern California, a father moves his young family to the countryside to renovate and re-open a struggling zoo.


:Movie makers:

Director:
Cameron Crowe
Writers:
Aline Brosh McKenna (screenplay), Cameron Crowe (screenplay), and 1 more credit ยป
Stars:
Matt Damon, Scarlett Johansson and Thomas Haden Church

Movie trailer: http://www.imdb.com/video/imdb/vi592747545/

Format: AVI

Format/Info: Audio Video Interleave

Duration: 1h 55mn

Overall bit rate: 1 293 Kbps

Writing library: TMPGEnc 4.0 XPress Version. 4.7.6.304



Video

ID: 0

Format: MPEG-4 Visual

Format profile: Advanced [email protected]

Format settings, BVOP: 1

Format settings, QPel: No

Format settings, GMC: No warppoints

Format settings, Matrix: Default (MPEG)

Muxing mode: Packed bitstream

Codec ID: XVID

Codec ID/Hint: XviD

Duration: 1h 55mn

Bit rate: 1 156 Kbps

Width: 720 pixels

Height: 372 pixels

Display aspect ratio: 1.935

Frame rate: 29.970 fps

Color space: YUV

Chroma subsampling: 4:2:0

Bit depth: 8 bits

Scan type: Progressive

Compression mode: Lossy

Bits/(Pixel*Frame): 0.144

Stream size: 843 MiB (89%)

Writing library: XviD 64



Audio

ID: 1

Format: MPEG Audio

Format version: Version 1

Format profile: Layer 3

Mode: Joint stereo

Codec ID: 55

Codec ID/Hint: MP3

Duration: 1h 55mn

Bit rate mode: Constant

Bit rate: 128 Kbps

Channel(s): 2 channels

Sampling rate: 48.0 KHz

Compression mode: Lossy

Stream size: 93.3 MiB (10%)

Alignment: Aligned on interleaves

Interleave, duration: 250 ms (7.49 video frames)

Interleave, preload duration: 432 ms

RIPPER NOTE'S: Ok here our russian sub video and enlish audio

not bad for first release could be a lot better if it wasnt in 3D did best i could

with lil cleanup didnt take long to sync audio (thx Mate 4 audio)

Related torrents

Torrent NameAddedSizeSeedLeechHealth
1 Year+ - in Movies757.12 MB00
Verified torrent
1 Year+ - in Movies818.79 MB10
11 months ago - in Movies1.12 GB00
1 Year+ - in Other1.5 GB77
1 Year+ - in Movies1.56 GB26

Comments (0 Comments)




Please login or create a FREE account to post comments

Latest Searches

| Colony S02E11 | daughter cassidy | marie force celebration | Alison Tyler The ZZ Special | baldurs mac | Robbie Williams Ive Been Expecting You 320 | secretly watched | Best Cumshot Facial Compilation Marc 5 AdultKing | heydouga 233 | motogp castellano |