Quick Browse
Movies
TV shows
Music
Games
Applications
Anime
Other
Facebook
Advertising

Friends
Torrent Download
Movie4u
1337x.to
Torrent Downloads




Verified torrent We Bought a Zoo 2011 CAM Xvid AC3-26K


    Seeders : 0      Leechers : 0
Hash :92C34336B455A7ED337348D6B5E72C7801F56FF3
Added :1 Year+ by memory100Verified torrent uploader in Movies
Size :1.59 GB
Stream :WATCH ONLINE @ Movie4u


We Bought a Zoo 2011 CAM Xvid AC3-26K
Free and Fast Download with Usenet 300GB+ free







Trackers List

Tracker NameLast CheckStatusSeedersLeechers




Torrent File Content (7 files)


We Bought a Zoo 2011 CAM Xvid AC3-26K
     HDSceneRG.txt -
115 bytes

     SAMPLE.AVI -
64.8 MB

     Torrent downloaded from Demonoid.me.txt -
46 bytes

     We Bought a Zoo 2011 CAM Xvid AC3-26K.AVI -
1.52 GB

     We Bought a Zoo 2011 CAM Xvid AC3-26K.nfo -
3.19 KB

     att-networks.com.txt -
39 bytes

     sceneunderground.org.txt -
77 bytes



Description



http://img819.imageshack.us/img819/4058/webought.jpg

[code]
We Bought a Zoo 2011 CAM Xvid AC3-26K

Imdb:
http://www.imdb.com/title/tt1389137/

Plot:
Set in Southern California, a father moves his young family to the countryside to renovate and re-open a

struggling zoo.

Sources:
video -INFERNO
audio -INFERNO

Notes:
Encoded the video added a few filters to make it look nice :)


Greetz:
Xtreme Encode|FYA|ILLUMANTI|CM8|RX|VISION|HDSCENE|NIGHTMAREZ|xTriLL|DTRG|CRYS|REMIXHD|BIDA|RX|REFILL|

INSPiRAL
To all the people who have helped me :P you know who you are

Anything to offer email us @: [email protected]

Video
ID : 0
Format : MPEG-4 Visual
Format profile : Advanced [email protected]
Format settings, BVOP : 2
Format settings, QPel : No
Format settings, GMC : No warppoints
Format settings, Matrix : Default (H.263)
Codec ID : XVID
Codec ID/Hint : XviD
Duration : 1h 58mn
Bit rate : 1 700 Kbps
Width : 624 pixels
Height : 352 pixels
Display aspect ratio : 16:9
Frame rate : 29.970 fps
Color space : YUV
Chroma subsampling : 4:2:0
Bit depth : 8 bits
Scan type : Progressive
Compression mode : Lossy
Bits/(Pixel*Frame) : 0.258
Stream size : 1.41 GiB (92%)
Writing library : XviD 63

Audio
ID : 1
Format : AC-3
Format/Info : Audio Coding 3
Mode extension : CM (complete main)
Codec ID : 2000
Duration : 1h 58mn
Bit rate mode : Constant
Bit rate : 128 Kbps
Channel(s) : 2 channels
Channel positions : Front: L R
Sampling rate : 48.0 KHz
Bit depth : 16 bits
Compression mode : Lossy
Stream size : 108 MiB (7%)
Alignment : Aligned on interleaves
Interleave, duration : 32 ms (0.96 video frame)

[/code]
Screens:
http://img515.imageshack.us/img515/3918/vlcsnap2012011320h59m08.png

http://img714.imageshack.us/img714/9971/vlcsnap2012011320h59m29.png

http://img37.imageshack.us/img37/5954/vlcsnap2012011320h59m55.png

http://img839.imageshack.us/img839/8607/vlcsnap2012011320h59m59.png

http://img577.imageshack.us/img577/4373/vlcsnap2012011321h00m08.png


http://img851.imageshack.us/img851/5503/26ks.jpg
#
Thank you smallz for banner!

Related torrents

Torrent NameAddedSizeSeedLeechHealth
Verified torrent
1 Year+ - in Movies777.83 MB10
7 months ago - in Movies1.12 GB00
1 Year+ - in Movies4.13 GB118
1 Year+ - in Movies1.12 GB106
1 Year+ - in Movies453.61 MB3112

Comments (0 Comments)




Please login or create a FREE account to post comments

Latest Searches

| J Cole de | Flubber 1997 720p HD TV Tamil English X264 Mp3 750MB mkv | all black movies | best d j mix 2015 | boston more than a feeling live | sound of music 1965 50th | software crack maker | University of Illinois at Urbana Champaign | coldplay paradise live | The Vision 001 |