Quick Browse
TV shows

Latest Articles

Torrent Download
Free Movies
Torrent Downloads

Verified torrent Whats Your Number 2011 CAM READNFO XViD - REBORN

    Seeders : 1      Leechers : 1

Hash :460985D8085E860D3EECE30169E627DEF6F093F1
Added :1 Year+ by memory100Verified torrent uploader in Movies
Size :920.08 MB
Stream :Watch Online Full Movie @ Movie4u
Share :

Whats Your Number 2011 CAM READNFO XViD - REBORN
Download Direct And Anonymously

Warning! Do not Download Torrents Without a VPN!
Your IP Address is .   And Location is
Your Internet Provider and Government can track your torrent Activity!  Hide your IP ADDRESS with a VPN!
We Strongly Recommend Using CyberGhost VPN to Anonymize your Torrenting.

Note :

Please Update (Trackers Info) Before Downloading Torrents to See Updated Seeders And Leechers for Batter Download Speed.

Trackers List

Tracker NameLast CheckStatusSeedersLeechers

Torrent File Content (8 files)

Whats Your Number 2011 CAM READNFO XViD - REBORN
     HDSceneRG.txt -
115 bytes

     Torrent downloaded from Demonoid.me.txt -
46 bytes

     Torrent downloaded from Suprnova.me.txt -
42 bytes

     Whats Your Number 2011 CAM READNFO XViD - REBORN SAMPLE.avi -
12.64 MB

     Whats Your Number 2011 CAM READNFO XViD - REBORN.avi -
907.44 MB

     Whats Your Number 2011 CAM READNFO XViD - REBORN.nfo -
2.83 KB

     att-networks.com.txt -
39 bytes

     sceneunderground.org.txt -
77 bytes



Whats Your Number 2011 CAM READNFO XViD - REBORN



ID : 0
Format : MPEG-4 Visual
Format profile : Advanced [email protected]
Format settings, BVOP : 2
Format settings, QPel : No
Format settings, GMC : No warppoints
Format settings, Matrix : Default (MPEG)
Muxing mode : Packed bitstream
Codec ID : XVID
Codec ID/Hint : XviD
Duration : 1h 41mn
Bit rate : 1 106 Kbps
Width : 672 pixels
Height : 256 pixels
Display aspect ratio : 2.625
Frame rate : 29.970 fps
Color space : YUV
Chroma subsampling : 4:2:0
Bit depth : 8 bits
Scan type : Progressive
Compression mode : Lossy
Bits/(Pixel*Frame) : 0.215
Stream size : 806 MiB (89%)
Writing library : XviD 64

ID : 1
Format : MPEG Audio
Format version : Version 1
Format profile : Layer 3
Codec ID : 55
Codec ID/Hint : MP3
Duration : 1h 41mn
Bit rate mode : Constant
Bit rate : 128 Kbps
Channel(s) : 2 channels
Sampling rate : 44.1 KHz
Compression mode : Lossy
Stream size : 93.2 MiB (10%)
Alignment : Split accross interleaves
Interleave, duration : 33 ms (1.00 video frame)
Interleave, preload duration : 500 ms


Well considering the video was already cropped by play to how the bottom subs...
i decided too crop it a few pixels more to remove the top of alot of subs where you could
still see the top of them.
Also the colouring was shot too pieces so fixed all that and also the AR was off,not badly but needing
fixing .
Audio was decent cam but was very loud and needed some work,so drop it in AA used a hiss removal and changed
all the EQ setting and resave and then remuxed to my encode.
Got too say IF being honest the video is poor,few times the camera zooms in,alot of movement here and there etc..
So i'd say view this on your pc or a small tv ....otherwise it will look POO!!





Related torrents

Torrent NameAddedSizeSeedLeechHealth
1 Year+ - in Movies920.08 MB1178
1 Year+ - in Movies1.48 GB2931
1 Year+ - in Movies1.37 GB15
1 Year+ - in Movies1.38 GB547
1 Year+ - in Movies1.38 GB1178

Note :

Feel free to post any comments about this torrent, including links to Subtitle, samples, screenshots, or any other relevant information. Please Dont Download anything from Comments, And Dont Post Links to Streaming Sites like Fmovies, Xmovies8, 123Movies, GoMovies, CMovieshd, Solarmovie, Watchfree, Putlockers, GoStream, m4ufree etc.

Comments (0 Comments)

Please login or create a FREE account to post comments

Latest Searches

| Family Force 5 Chainsaw feat Tedashii Single MP3 320kbps F117 | My Little Pony Equestria Girls Friendship Games 2015 720p HDTV x264 W4Frarbg | Celine Dion Celine Une seule fois Live 2013 2014 | The Level S01E05 HDTV x264 ORGANiC | heaven bryan a mp3 | soccer winning eleven 2014 | full album rolling stones | Rainbow Discography 1975 2006 FLAC MP3320 | epub VBA | buzzcocks studio |