Quick Browse
Movies
TV shows
Music
Games
Applications
Anime
Other
Facebook
Advertising

Friends
Torrent Download
Movie4u
1337x.to
Torrent Downloads




Verified torrent Whats Your Number 2011 CAM READNFO XViD - REBORN


    Seeders : 1      Leechers : 1
Hash :460985D8085E860D3EECE30169E627DEF6F093F1
Added :1 Year+ by memory100Verified torrent uploader in Movies
Size :920.08 MB
Stream :WATCH ONLINE @ Movie4u


Whats Your Number 2011 CAM READNFO XViD - REBORN
Free and Fast Download with Usenet 300GB+ free







Trackers List

Tracker NameLast CheckStatusSeedersLeechers




Torrent File Content (8 files)


Whats Your Number 2011 CAM READNFO XViD - REBORN
     HDSceneRG.txt -
115 bytes

     Torrent downloaded from Demonoid.me.txt -
46 bytes

     Torrent downloaded from Suprnova.me.txt -
42 bytes

     Whats Your Number 2011 CAM READNFO XViD - REBORN SAMPLE.avi -
12.64 MB

     Whats Your Number 2011 CAM READNFO XViD - REBORN.avi -
907.44 MB

     Whats Your Number 2011 CAM READNFO XViD - REBORN.nfo -
2.83 KB

     att-networks.com.txt -
39 bytes

     sceneunderground.org.txt -
77 bytes



Description



http://img822.imageshack.us/img822/1892/whatss.jpg

[code]
Whats Your Number 2011 CAM READNFO XViD - REBORN

SOURCES THANKED:
What's.Your.Number.2011.CAM.XviD-playXD

http://www.imdb.com/title/tt0770703/

Video
ID : 0
Format : MPEG-4 Visual
Format profile : Advanced [email protected]
Format settings, BVOP : 2
Format settings, QPel : No
Format settings, GMC : No warppoints
Format settings, Matrix : Default (MPEG)
Muxing mode : Packed bitstream
Codec ID : XVID
Codec ID/Hint : XviD
Duration : 1h 41mn
Bit rate : 1 106 Kbps
Width : 672 pixels
Height : 256 pixels
Display aspect ratio : 2.625
Frame rate : 29.970 fps
Color space : YUV
Chroma subsampling : 4:2:0
Bit depth : 8 bits
Scan type : Progressive
Compression mode : Lossy
Bits/(Pixel*Frame) : 0.215
Stream size : 806 MiB (89%)
Writing library : XviD 64

Audio
ID : 1
Format : MPEG Audio
Format version : Version 1
Format profile : Layer 3
Codec ID : 55
Codec ID/Hint : MP3
Duration : 1h 41mn
Bit rate mode : Constant
Bit rate : 128 Kbps
Channel(s) : 2 channels
Sampling rate : 44.1 KHz
Compression mode : Lossy
Stream size : 93.2 MiB (10%)
Alignment : Split accross interleaves
Interleave, duration : 33 ms (1.00 video frame)
Interleave, preload duration : 500 ms


WORKDONE:

Well considering the video was already cropped by play to how the bottom subs...
i decided too crop it a few pixels more to remove the top of alot of subs where you could
still see the top of them.
Also the colouring was shot too pieces so fixed all that and also the AR was off,not badly but needing
fixing .
Audio was decent cam but was very loud and needed some work,so drop it in AA used a hiss removal and changed
all the EQ setting and resave and then remuxed to my encode.
Got too say IF being honest the video is poor,few times the camera zooms in,alot of movement here and there etc..
So i'd say view this on your pc or a small tv ....otherwise it will look POO!!
[/code]
Screens:
http://img810.imageshack.us/img810/3999/94058776.png

http://img560.imageshack.us/img560/7315/91135404.png

http://img197.imageshack.us/img197/8639/71675097.png

http://img718.imageshack.us/img718/3816/39839301.png

http://img543.imageshack.us/img543/900/86276846.png


Related torrents

Torrent NameAddedSizeSeedLeechHealth
1 Year+ - in Movies920.08 MB1178
1 Year+ - in Movies1.48 GB2931
1 Year+ - in Movies1.37 GB15
1 Year+ - in Movies1.38 GB547
1 Year+ - in Movies1.38 GB1178

Comments (0 Comments)




Please login or create a FREE account to post comments

Latest Searches

| La La Land x264 | b i g warning | sum 182 | law order 03 | Pitch S01E10 xvid | overnight part 2 | Supernatural S12E08 xvid | immortals j cole | michael jackson la la la | Lisa Blacked DP 5 Swallow New girl gets 5 boys for the first time |