Quick Browse
Movies
TV shows
Music
Games
Applications
Anime
Other
Facebook
Advertising

Friends
Torrent Download
Movie4u
1337x.to
Torrent Downloads




Verified torrent Why Did I Get Married Too [DVD5] [ENG] [AC3] [Hannspree]


    Seeders : 1      Leechers : 1

Trackers List

Tracker NameLast CheckStatusSeedersLeechers




Torrent File Content (15 files)


Why Did I Get Married Too
    VIDEO_TS
          VIDEO_TS.BUP -
12 KB

          VIDEO_TS.IFO -
12 KB

          VIDEO_TS.VOB -
58 KB

          VTS_01_0.BUP -
80 KB

          VTS_01_0.IFO -
80 KB

          VTS_01_0.VOB -
58 KB

          VTS_01_1.VOB -
1023.97 MB

          VTS_01_2.VOB -
1023.97 MB

          VTS_01_3.VOB -
484.07 MB

    Why Did I Get Married Too [Images]
          Why Did I Get Married Too [Cover].jpg -
405.86 KB

          Why Did I Get Married Too [Disc].jpg -
325.46 KB

          Why Did I Get Married Too [Screens1].jpg -
162.91 KB

          Why Did I Get Married Too [Screens2].jpg -
145.7 KB

     Torrent downloaded from Demonoid.com.txt -
47 bytes

     Why Did I Get Married Too.NFO -
3.75 KB



Description



=====================================================================================
[ Another free, high quality, ready to burn DVD I will be adding new torrents on a daily basis - Remember to seed ]
=====================================================================================
MOVIE TITLE: Why Did I Get Married Too
LANGUAGE: English
MOVIE SUBS: No
BURN TESTED: Yes
FORMAT: Pal
GENRE: Comedy
RUNTIME: 121 Minutes
YEAR: 2010
IMDB LINK: http://www.imdb.com/title/tt1391137/
=====================================================================================
MOVIE DESC:

Four couples reunite for their annual vacation in order to socialize and to spend time analyzing their marriages. Their intimate week in the Bahamas is disrupted by the arrival of an ex-husband determined to win back his recently remarried wife.
=====================================================================================
MOVIE SPECS:

GENERAL:
Complete name : Why Did I Get Married Too [DVD5]
Format : MPEG-PS
File size : 2.47 GB
Duration : 121 Minutes
Overall bit rate : 3 446 Kbps

VIDEO:
ID : 224 (0xE0)
Format : MPEG Video
Format version : Version 2
Format profile : [email protected]
Format settings, BVOP : Yes
Format settings, Matrix : Default
Duration : 121 Minutes
Bit rate mode : Variable
Bit rate : 3 186 Kbps
Nominal bit rate : 9 608 Kbps
Width : 720 pixels
Height : 576 pixels
Display aspect ratio : 16:9
Frame rate : 25.000 fps
Standard : PAL
Color space : YUV
Chroma subsampling : 4:2:0
Bit depth : 8 bits
Scan type : Progressive
Bits/(Pixel*Frame) : 0.307
Stream size : 947 MiB (92%)

AUDIO:
ID : 128 (0x80)
Format : AC-3
Format/Info : Audio Coding 3
Mode extension : CM (complete main)
Duration : 121 Minutes
Bit rate mode : Constant
Bit rate : 192 Kbps
Channel(s) : 2 channels
Channel positions : Front: L R
Sampling rate : 48.0 KHz
Stream size : 57.0 MiB (6%)
=====================================================================================
TRACKERS:
http://tracker.torrentbox.com:2710/announce
http://denis.stalker.h3q.com/announce
http://exodus.1337x.org/announce
http://tracker.ilibr.org/announce
http://tpb.tracker.prq.to/announce
http://red.tracker.prq.to/announce
http://tracker.openbittorrent.com/announce
=====================================================================================
[FOOT NOTE]
If you are happy with this download, it would be nice to hear your views or comments that you might have. Enjoy
=====================================================================================
Screen Shot Of Why Did I Get Married Too
=====================================================================================
http://leetpic.com/images/whydidiget.jpg

=====================================================================================
http://leetpic.com/images/whydidziz.jpg

=====================================================================================
http://torrent-stats.info/2ed6/2a1127ca.png

=====================================================================================

Related torrents

Torrent NameAddedSizeSeedLeechHealth
1 Year+ - in Movies1.66 GB00
1 Year+ - in Movies1.66 GB03
1 Year+ - in Movies1.01 GB5855
1 Year+ - in Movies4.33 GB2311
1 Year+ - in Movies4.33 GB2810

Comments (0 Comments)




Please login or create a FREE account to post comments

Latest Searches

| Kick 2 jigarwala no 1 | jackie chain climax | russian s gangbang | Angel Catbird Volume 1 2016 CBR zeke23 | alleyways the neighbourhood | Desi Newly Married bhabi Honeymoon sex tape | Underworld hindi blood | just what i am kid cudi king chip | 1979 Blondie Live at the Apollo Theatre | dopdf converter |