Quick Browse
Movies
TV shows
Music
Games
Applications
Anime
Other
Facebook
Advertising

Friends
Torrent Download
Movie4u
1337x.to
Torrent Downloads




Verified torrent Wild Target [DVD5] [ENG] [AC3] [Hannspree]


    Seeders : 5      Leechers : 2
Hash :25BADBEBF74881634570043DB0E0ABFD362849F8
Added :1 Year+ by HannspreeVerified torrent uploader in Movies
Size :1.55 GB
Stream :WATCH ONLINE @ Movie4u


Wild Target [DVD5] [ENG] [AC3] [Hannspree]
Free and Fast Download with Usenet 300GB+ free







Trackers List

Tracker NameLast CheckStatusSeedersLeechers




Torrent File Content (13 files)


Wild Target
    Wild Target [DVD]
          VIDEO_TS/VIDEO_TS.BUP -
12 KB

          VIDEO_TS/VIDEO_TS.IFO -
12 KB

          VIDEO_TS/VIDEO_TS.VOB -
58 KB

          VIDEO_TS/VTS_01_0.BUP -
66 KB

          VIDEO_TS/VTS_01_0.IFO -
66 KB

          VIDEO_TS/VTS_01_0.VOB -
58 KB

          VIDEO_TS/VTS_01_1.VOB -
1023.97 MB

          VIDEO_TS/VTS_01_2.VOB -
560.98 MB

    Wild Target [Images]
          big[1].jpg -
100.98 KB

          Wild Target [Disc].jpg -
321.93 KB

          Wild Target [Screens].jpg -
143.17 KB

     Torrent downloaded from H33T.org.txt -
43 bytes

     Wild Target.NFO -
3.85 KB



Description



=====================================================================================
[ Another free, high quality, ready to burn DVD I will be adding new torrents on a daily basis - Remember to seed ]
=====================================================================================
MOVIE TITLE: Wild Target
LANGUAGE: English
MOVIE SUBS: No
BURN TESTED: Yes
FORMAT: Pal
GENRE: Action | Comedy | Crime | Drama
RUNTIME: 98 Minutes
YEAR: 2010
IMDB LINK: http://www.imdb.com/title/tt1235189/
=====================================================================================
MOVIE DESC:

Victor Maynard is a middle-aged, solitary assassin, who lives to please his formidable mother, despite his own peerless reputation for lethal efficiency. His professional routine is interrupted when he finds himself drawn to one of his intended victims, Rose. He spares her life, unexpectedly acquiring in the process a young apprentice, Tony. Believing Victor to be a private detective, his two new companions tag along, while he attempts to thwart the murderous attentions of his unhappy client
=====================================================================================
MOVIE SPECS:

GENERAL:
Complete name : Wild Target [DVD5]
Format : MPEG-PS
File size : 1 024 MiB
Duration : 98 Minutes
Overall bit rate : 2 592 Kbps

VIDEO:
ID : 224 (0xE0)
Format : MPEG Video
Format version : Version 2
Format profile : [email protected]
Format settings, BVOP : Yes
Format settings, Matrix : Default
Duration : 98 Minutes
Bit rate mode : Variable
Bit rate : 2 348 Kbps
Nominal bit rate : 9 608 Kbps
Width : 720 pixels
Height : 576 pixels
Display aspect ratio : 16:9
Frame rate : 25.000 fps
Standard : PAL
Color space : YUV
Chroma subsampling : 4:2:0
Bit depth : 8 bits
Scan type : Progressive
Bits/(Pixel*Frame) : 0.227
Stream size : 928 MiB (91%)

AUDIO:
ID : 128 (0x80)
Format : AC-3
Format/Info : Audio Coding 3
Mode extension : CM (complete main)
Duration : 98 Minutes
Bit rate mode : Constant
Bit rate : 192 Kbps
Channel(s) : 2 channels
Channel positions : Front: L R
Sampling rate : 48.0 KHz
Stream size : 75.8 MiB (7%)
=====================================================================================
TRACKERS:
http://fr33dom.h33t.com:3310/announce
http://denis.stalker.h3q.com/announce
http://exodus.1337x.org/announce
http://tracker.ilibr.org/announce
http://tpb.tracker.prq.to/announce
http://red.tracker.prq.to/announce
http://tracker.openbittorrent.com/announce
=====================================================================================
[FOOT NOTE]
If you are happy with this download, it would be nice to hear your views or comments that you might have. Enjoy
=====================================================================================
Screen Shot Of Wild Target
=====================================================================================
http://leetpic.com/images/wildtarget.jpg

=====================================================================================
http://torrent-stats.info/043d/3cf37f5.png

=====================================================================================

Related torrents

Torrent NameAddedSizeSeedLeechHealth
Verified torrent
1 Year+ - in Movies1.68 GB42
Verified torrent
1 Year+ - in Movies1.63 GB03
Verified torrent
1 Year+ - in Movies2.14 GB28
Verified torrent
1 Year+ - in Movies869.42 MB55
Verified torrent
1 Year+ - in Movies2 GB02

Comments (0 Comments)




Please login or create a FREE account to post comments

Latest Searches

| sing me to sleep alan | O O Defrag Professional v 20 | down ferry | 720p BluRay x264 DEMAND RiCK | Callie Cyprus Hardcore Nubiles | heat wave mp3 | ADV TripleBunny | john lee hooker north sea | the fade out 007 2015 digital zone empire cbr | kelly Rowland like |