Quick Browse
Movies
TV shows
Music
Games
Applications
Anime
Other
Facebook
Advertising

Friends
Torrent Download
Movie4u
1337x.to
Torrent Downloads




Verified torrent Win Win 2011 PPVRip IFLIX


    Seeders : 16      Leechers : 189
Hash :F570ADCFC317B29888C089CE738A0ADFE7FB8056
Added :1 Year+ by ChrisAkselVerified torrent uploader in Movies
Size :1.24 GB
Stream :WATCH ONLINE @ Movie4u


Win Win 2011 PPVRip IFLIX
Free and Fast Download with Usenet 300GB+ free







Trackers List

Tracker NameLast CheckStatusSeedersLeechers




Torrent File Content (1 file)


Win.Win.2011.PPVRip.XviD-IFLIX
     Win.Win.2011.PPVRip.XviD-IFLIX.avi -
1.24 GB



Description



http://img18.imageshack.us/img18/9256/winwinj.jpg


Win Win 2011 PPVRip IFLIX
http://www.imdb.com/title/tt1606392/

Language : English
Format : AVI
Format/Info : Audio Video Interleave
Format profile : OpenDML
File size : 1.24 GiB
Duration : 1h 44mn
Overall bit rate : 1 696 Kbps

Video
ID : 0
Format : MPEG-4 Visual
Format profile : [email protected]
Format settings, BVOP : No
Format settings, QPel : No
Format settings, GMC : No warppoints
Format settings, Matrix : Default (H.263)
Codec ID : XVID
Codec ID/Hint : XviD
Duration : 1h 44mn
Bit rate : 1 550 Kbps
Width : 720 pixels
Height : 480 pixels
Display aspect ratio : 1.500
Frame rate : 29.970 fps
Original frame rate : 29.000 fps
Standard : NTSC
Resolution : 24 bits
Colorimetry : 4:2:0
Scan type : Progressive
Bits/(Pixel*Frame) : 0.150
Stream size : 1.14 GiB (91%)
Writing library : XviD 1.2.1 (UTC 2008-12-04)

Audio
ID : 1
Format : MPEG Audio
Format version : Version 1
Format profile : Layer 3
Format_Settings_Mode : Joint stereo / MS Stereo
Codec ID : 55
Codec ID/Hint : MP3
Duration : 1h 44mn
Bit rate mode : Constant
Bit rate : 128 Kbps
Channel(s) : 2 channels
Sampling rate : 44.1 KHz
Resolution : 16 bits
Stream size : 96.0 MiB (8%)
Alignment : Aligned on interleaves
Interleave, duration : 26 ms (0.78 video frame)
Writing library : LAME3.98.2

Release notes...

Another quality release from IFLIX
More to come very soon!

Video source: Ours
Audio source: Ours

Greetings to all other groups out there. You all do awesome work and we greatly appreciate it.
IFLIX :-)
Screens:
http://img821.imageshack.us/img821/9195/40394252.png

http://img853.imageshack.us/img853/3876/88275335.png

http://img825.imageshack.us/img825/5382/56905123r.png

Related torrents

Torrent NameAddedSizeSeedLeechHealth
1 Year+ - in Movies1.44 GB00
1 Year+ - in Movies1.32 GB00
1 Year+ - in Movies1.65 GB00
1 Year+ - in Movies1.8 GB00
1 Year+ - in Movies1.52 GB014

Comments (0 Comments)




Please login or create a FREE account to post comments

Latest Searches

| high school dxd hi10 | eddie m baby hold on | 2016 12 06 | blue jay 2 | work on on | pristine edge naughtyamerica 2014 siterip s 18 | lucy dreaming | Anthony Bourdain parts unknown S08E08 hdtv | new 2016 mixes | Sunny D S01E04 |