Quick Browse
Movies
TV shows
Music
Games
Applications
Anime
Other

Advertising

Friends
Torrents.me
Torrent Download
Free Movies
1337x
RARBG
Torrent Downloads

Verified torrent Wiz Khalifa - Black and Yellow [KingPinVideos]


    Seeders : 138      Leechers : 7

Hash :E0DBD5880F9D20704EF970471E7F5BFB67253392
Added :1 Year+ by KingPinVerified torrent uploader in Music - Music Videos
Size :75.72 MB
Stream :Watch Online Full Movie @ Movie4u
Share :


Wiz Khalifa - Black and Yellow [KingPinVideos]
Download FREE And Anonymously







Warning! Do not Download Torrents Without a VPN!
Your IP Address is .   And Location is
Your Internet Provider and Government can track your torrent Activity!  Hide your IP ADDRESS with a VPN!
We Strongly Recommend Using SpyOFF Torrent VPN to Anonymize your Torrenting. It's FREE for 15 Days!

Note :

Please Update (Trackers Info) Before Downloading Torrents to See Updated Seeders And Leechers for Batter Download Speed.

Trackers List

Tracker NameLast CheckStatusSeedersLeechers




Torrent File Content (5 files)


Wiz Khalifa - Black and Yellow [KingPinVideos]
     Wiz Khalifa - Black and Yellow [KingPinVideos].mpg -
75.72 MB

     Wiz Khalifa - Black and Yellow [KingPinVideos].nfo -
1.89 KB

     Wiz Khalifa - Black and Yellow [KingPinVideos].txt -
1.64 KB

     Torrent downloaded from Demonoid.com.txt -
47 bytes

     Torrent Downloaded from Limetorrents.com.txt -
46 bytes



Description



http://img145.imageshack.us/img145/3435/wizblack.png


http://img828.imageshack.us/img828/6628/wizblack2.png


[code]General
Complete name : Wiz Khalifa - Black and Yellow [KingPinVideos].mpg
Format : MPEG-PS
File size : 75.7 MiB
Duration : 3mn 42s
Overall bit rate : 2 856 Kbps
Writing library : encoded by TMPGEnc 4.0 XPress Version. 4.7.4.299

Video
ID : 224 (0xE0)
Format : MPEG Video
Format version : Version 1
Format settings, BVOP : Yes
Format settings, Matrix : Default
Duration : 3mn 42s
Bit rate mode : Constant
Bit rate : 2 614 Kbps
Nominal bit rate : 2 700 Kbps
Width : 384 pixels
Height : 208 pixels
Display aspect ratio : 16:9
Frame rate : 29.970 fps
Resolution : 8 bits
Scan type : Progressive
Bits/(Pixel*Frame) : 1.092
Stream size : 69.3 MiB (92%)
Writing library : TMPGEnc XPress 4.7.4.299

Audio
ID : 192 (0xC0)
Format : MPEG Audio
Format version : Version 1
Format profile : Layer 2
Duration : 3mn 42s
Bit rate mode : Constant
Bit rate : 128 Kbps
Channel(s) : 2 channels
Sampling rate : 48.0 KHz
Stream size : 3.39 MiB (4%)[/code]

Related torrents

Torrent NameAddedSizeSeedLeechHealth
3 months ago - in Other91.77 MB00
5 months ago - in Other4.63 MB00
1 Year+ - in Music8.15 MB10
1 Year+ - in Music3.47 MB00
1 Year+ - in Music5.56 MB00

Note :

Feel free to post any comments about this torrent, including links to Subtitle, samples, screenshots, or any other relevant information. Please Dont Download anything from Comments, And Dont Post Links to Streaming Sites like Fmovies, Xmovies8, 123Movies, GoMovies, CMovieshd, Solarmovie, Watchfree, Putlockers, GoStream, m4ufree etc.

Comments (0 Comments)




Please login or create a FREE account to post comments

Latest Searches

| labor m | uncensored English movies | Suicide Silence The Black Crown | skin diamond pushherlimits | AllOver30 15 12 23 Laura Fabroni 720p WMV YAPG | ARRAY A | weight work | magazines 2017 nov | creativemarket kyle s natural brushes 4 sketchbook 474104 | Cotton Candi Detention Double Dicking |