Quick Browse
Movies
TV shows
Music
Games
Applications
Anime
Other
Facebook
Advertising

Friends
Torrent Download
Movie4u
1337x.to
Torrent Downloads




Verified torrent Wiz Khalifa - Black and Yellow [KingPinVideos]


    Seeders : 138      Leechers : 7
Hash :E0DBD5880F9D20704EF970471E7F5BFB67253392
Added :1 Year+ by KingPinVerified torrent uploader in Music - Music Videos
Size :75.72 MB
Stream :WATCH ONLINE @ Movie4u


Wiz Khalifa - Black and Yellow [KingPinVideos]
Free and Fast Download with Usenet 300GB+ free







Trackers List

Tracker NameLast CheckStatusSeedersLeechers




Torrent File Content (5 files)


Wiz Khalifa - Black and Yellow [KingPinVideos]
     Wiz Khalifa - Black and Yellow [KingPinVideos].mpg -
75.72 MB

     Wiz Khalifa - Black and Yellow [KingPinVideos].nfo -
1.89 KB

     Wiz Khalifa - Black and Yellow [KingPinVideos].txt -
1.64 KB

     Torrent downloaded from Demonoid.com.txt -
47 bytes

     Torrent Downloaded from Limetorrents.com.txt -
46 bytes



Description



http://img145.imageshack.us/img145/3435/wizblack.png


http://img828.imageshack.us/img828/6628/wizblack2.png


[code]General
Complete name : Wiz Khalifa - Black and Yellow [KingPinVideos].mpg
Format : MPEG-PS
File size : 75.7 MiB
Duration : 3mn 42s
Overall bit rate : 2 856 Kbps
Writing library : encoded by TMPGEnc 4.0 XPress Version. 4.7.4.299

Video
ID : 224 (0xE0)
Format : MPEG Video
Format version : Version 1
Format settings, BVOP : Yes
Format settings, Matrix : Default
Duration : 3mn 42s
Bit rate mode : Constant
Bit rate : 2 614 Kbps
Nominal bit rate : 2 700 Kbps
Width : 384 pixels
Height : 208 pixels
Display aspect ratio : 16:9
Frame rate : 29.970 fps
Resolution : 8 bits
Scan type : Progressive
Bits/(Pixel*Frame) : 1.092
Stream size : 69.3 MiB (92%)
Writing library : TMPGEnc XPress 4.7.4.299

Audio
ID : 192 (0xC0)
Format : MPEG Audio
Format version : Version 1
Format profile : Layer 2
Duration : 3mn 42s
Bit rate mode : Constant
Bit rate : 128 Kbps
Channel(s) : 2 channels
Sampling rate : 48.0 KHz
Stream size : 3.39 MiB (4%)[/code]

Related torrents

Torrent NameAddedSizeSeedLeechHealth
1 Year+ - in Music8.15 MB10
1 Year+ - in Music3.47 MB00
1 Year+ - in Music5.56 MB00
1 Year+ - in Other8.84 MB10
1 Year+ - in Movies74.94 MB00

Comments (0 Comments)




Please login or create a FREE account to post comments

Latest Searches

| wwe raw 11 8 16 | Fred meet | Pitbull Get It Started 2012 | nude russian s | sous vide at home | yify whiteout 2009 | Sub Rae | windows 7 codec | Janatha Garage 2016 720p Untouched WEBHD AVC AAC DDR mkv | Hardstyle Collection 2 1 3 |