Quick Browse
Movies
TV shows
Music
Games
Applications
Anime
Other
Facebook
Advertising

Friends
Torrent Download
Movie4u
1337x.to
Torrent Downloads




Wrong.Turn.4.Bloody.Beginnings.2011.BBRip.XviD By amu443


    Seeders : 1      Leechers : 0
Hash :6C6B49B1AAD966E56334566422CC2D7A9E94A380
Added :1 Year+ by amu143 in Movies
Size :1.37 GB
Stream :WATCH ONLINE @ Movie4u


Wrong.Turn.4.Bloody.Beginnings.2011.BBRip.XviD By amu443
Free and Fast Download with Usenet 300GB+ free







Trackers List

Tracker NameLast CheckStatusSeedersLeechers




Torrent File Content (1 file)


Wrong.Turn.4.Bloody.Beginnings.2011.DVDRip.XviD
     Wrong.Turn.4.Bloody.Beginnings.2011.DVDRip.XviD.AC3.avi -
1.37 GB



Description



http://img408.imageshack.us/img408/9972/wrongturn4bloodybeginni.jpg


http://img830.imageshack.us/img830/7277/wrongturn4bloodybeginnij.jpg


[size=4][font="Trebuchet MS"][b][color=red][b]General
Complete name : H:\Wrong Turn\Wrong.Turn.4.Bloody.Beginnings.2011.DVDRip.XviD\Wrong.Turn.4.Bloody.Beginnings.2011.DVDRip.XviD.AC3.avi
Format : AVI
Format/Info : Audio Video Interleave
File size : 1.37 GiB
Duration : 1h 33mn
Overall bit rate : 2 094 Kbps

Video
ID : 0
Format : MPEG-4 Visual
Format profile : Advanced [email protected]
Format settings, BVOP : 3
Format settings, QPel : Yes
Format settings, GMC : No warppoints
Format settings, Matrix : Default (H.263)
Codec ID : XVID
Codec ID/Hint : XviD
Duration : 1h 33mn
Bit rate : 1 638 Kbps
Width : 720 pixels
Height : 400 pixels
Display aspect ratio : 16:9
Frame rate : 23.976 fps
Color space : YUV
Chroma subsampling : 4:2:0
Bit depth : 8 bits
Scan type : Progressive
Compression mode : Lossy
Bits/(Pixel*Frame) : 0.237
Stream size : 1.07 GiB (78%)
Writing library : XviD 1.2.1 (UTC 2008-12-04)

Audio
ID : 1
Format : AC-3
Format/Info : Audio Coding 3
Mode extension : CM (complete main)
Codec ID : 2000
Duration : 1h 33mn
Bit rate mode : Constant
Bit rate : 448 Kbps
Channel(s) : 6 channels
Channel positions : Front: L C R, Side: L R, LFE
Sampling rate : 48.0 KHz
Bit depth : 16 bits
Compression mode : Lossy
Stream size : 299 MiB (21%)
Alignment : Aligned on interleaves
Interleave, duration : 64 ms (1.53 video frames)
Interleave, preload duration : 192 ms
Title : VTS_07_1 T80 3_2ch 448Kbps DELAY 0ms_new

[/color][/b][/b][/font][/size]

Related torrents

Torrent NameAddedSizeSeedLeechHealth
7 months ago - in Movies1.13 GB00
7 months ago - in Movies1.78 GB00
7 months ago - in Movies1.18 GB00
1 Year+ - in Movies851.02 MB00
1 Year+ - in Movies1.62 GB00

Comments (0 Comments)




Please login or create a FREE account to post comments

Latest Searches

| deborah remix | f my system | Third Eye Blind Jumper | Anna Elias The Forlorn Hope Valleys in the Flatlands | 1 1 82 | e cologyk original mix | BBC Russias Lost Princesses | relaxxxed kendra | Naomi 37 Year Old Is One Busty Freak | date night sins |