Quick Browse
Movies
TV shows
Music
Games
Applications
Anime
Other

Donate and Support

Friends
Torrents.me
Torrent Download
Free Movies
1337x
RARBG
Torrent Downloads

Verified torrent Wrong Turn At Tahoe.2010.DvdRip.~VKS3385


    Seeders : 1      Leechers : 4
Hash :17246EB01DECA365238BD927C373571E4CB1919D
Added :1 Year+ by VKS3385Verified torrent uploader in Movies
Size :696.14 MB
Stream :Watch Full Movies Online @ Movie4u
Share :


Wrong Turn At Tahoe.2010.DvdRip.~VKS3385
Anonymous and free Direct Download







Warning! Do not Download Torrents Without a VPN!
Your IP Address is .   And Location is
Your Internet Provider and Government can track your torrent Activity!  Hide your IP ADDRESS with a VPN!
We Strongly Recommend Using SpyOFF Torrent VPN to Anonymize your Torrenting. It's FREE For 15 Days!

Note :

Please Update (Trackers Info) Before Downloading Torrents to See Updated Seeders And Leechers for Batter Download Speed.

Trackers List

Tracker NameLast CheckStatusSeedersLeechers




Torrent File Content (1 file)


Wrong Turn At Tahoe.2010.DvdRip.Xvid
     WTAT.mkv -
696.14 MB



Description



http://img340.imageshack.us/img340/1050/hddesirockers.png

http://img62.imageshack.us/img62/5382/roadsignphp.png


http://img838.imageshack.us/img838/5777/wrongturnattahoe2010fro.jpg


http://img822.imageshack.us/img822/9081/000696.jpg


http://img651.imageshack.us/img651/2007/wrongturnattahoecdcover.jpg


http://i50.tinypic.com/zvbzx2.jpg

General
Complete name : Wrong Turn At Tahoe.2010.DvdRip~VKS3385
Format : Matroska
File size : 696 MiB
Duration : 1h 26mn
Overall bit rate : 1 123 Kbps
Encoded date : UTC 2010-07-22 06:07:42
Writing application : mkvmerge v4.1.1 ('Bouncin' Back') built on Jul 3 2010 22:54:08
Writing library : libebml v1.0.0 + libmatroska v1.0.0


http://img37.imageshack.us/img37/7218/vlcfile.png

ID : 1
Format : MPEG-4 Visual
Format profile : Advanced [email protected]
Format settings, BVOP : Yes
Format settings, QPel : No
Format settings, GMC : No warppoints
Format settings, Matrix : Default (H.263)
Codec ID : XVID
Codec ID/Hint : XviD
Duration : 1h 26mn
Bit rate : 973 Kbps
Width : 720 pixels
Height : 304 pixels
Display aspect ratio : 2.35:1
Frame rate : 25.000 fps
Original frame rate : 23.976 fps
Color space : YUV
Chroma subsampling : 4:2:0
Bit depth : 8 bits
Scan type : Progressive
Bits/(Pixel*Frame) : 0.178
Stream size : 603 MiB (87%)
Writing library : XviD 1.2.1 (UTC 2008-12-04)


http://img248.imageshack.us/img248/6613/musicfile1.png

Audio
ID : 2
Format : MPEG Audio
Format version : Version 1
Format profile : Layer 3
Mode : Joint stereo
Mode extension : MS Stereo
Codec ID : A_MPEG/L3
Codec ID/Hint : MP3
Duration : 1h 26mn
Bit rate mode : Constant
Bit rate : 128 Kbps
Channel(s) : 2 channels
Sampling rate : 44.1 KHz
Video delay : 6s 200ms
Stream size : 79.3 MiB (11%)


http://i43.tinypic.com/2rms307.jpg

http://img822.imageshack.us/img822/3415/wtatmkvsnapshot00145020.jpg

http://img541.imageshack.us/img541/874/wtatmkvsnapshot00241220.jpg

http://img214.imageshack.us/img214/5899/wtatmkvsnapshot00334920.jpg

http://img541.imageshack.us/img541/6827/wtatmkvsnapshot00075020.jpg

http://img541.imageshack.us/img541/5899/wtatmkvsnapshot01073220.jpg

http://img441.imageshack.us/img441/5655/wtatmkvsnapshot00531520.jpg

http://img214.imageshack.us/img214/1570/wtatmkvsnapshot01194420.jpg


http://img41.imageshack.us/img41/4206/slqp2p1.gif

http://i26.tinypic.com/24w6l1j.jpg


Sample
http://i42.tinypic.com/9qfupd.jpg

http://img824.imageshack.us/img824/2975/file13359.mp4

Related torrents

Torrent NameAddedSizeSeedLeechHealth
1 Year+ - in Movies1.6 GB2248
1 Year+ - in Movies810.59 MB11
1 Year+ - in Movies697.62 MB75112
1 Year+ - in Movies4.31 GB00
1 Year+ - in Movies852.71 MB00

Comments (0 Comments)




Please login or create a FREE account to post comments

Latest Searches

| big tits milf cock | Gossip Girl Gossip Girl S01E12 | Autodesk AutoCAD MAP 3D 2016 32 64Bit | real slip | chihiro 720p | grand san andreas 2 | band of brothers s01e06 nl | syriana 1080p 2005 | Bearson Want You feat | twenty one fairly |