Quick Browse
Movies
TV shows
Music
Games
Applications
Anime
Other
Facebook
Advertising

Friends
Torrent Download
Movie4u
1337x.to
Torrent Downloads




Wrong Turn At Tahoe (2010)(MPEG-4)(IPONE)(NL SUBS) 2Lions-Team


    Seeders : 11      Leechers : 6

Trackers List

Tracker NameLast CheckStatusSeedersLeechers




Torrent File Content (5 files)


Wrong Turn At Tahoe (2010)(Dutch)(MPEG-4)(IPONE) 2Lions-Team
    INFO 2Lions-Team
          logo 2Lions.jpg -
314.99 KB

          Wrong_Turn_At_Tahoe_(2010)_R0_CUSTOM-[Front]-[www.FreeCovers.net].jpg -
124.7 KB

          Wrong Turn At Tahoe (2010)(Dutch)(MPEG-4)(IPONE) 2Lions-Team.txt -
3.5 KB

          Torrents aan geboden door _2lions.ons-forum.nl.txt -
583 bytes

    MOVIE
          Wrong Turn At Tahoe (2010).mp4 -
838.72 MB



Description



Wrong Turn At Tahoe (2010)(Dutch)(MPEG-4)(IPONE) 2Lions-Team

http://img38.imageshack.us/img38/4320/wrongturnattahoe2010r0c.jpg


liefde.Eer.kracht. angst voor de dood..mensen leven voor verschillende redenen.
het leven wordt een echte uitdaging als je leeft voor vergelding. Joshua (Oscar winner Cuba Gooding Jr.)
hij leeft in een keiharde vijandige wereld met mooie vrouwen.
maar als hij zichzelf terugvindt tijdens een strijd met een meest dominante drugs baas,
dan weet hij dat hierdoor deze geen weg terug is




PLOT

Wrong Turn At Tahoe (2010)

Love. Honor. Power. Fear of death... People live for all kinds of reasons.
Life becomes the ultimate battle when all you're living for is revenge. Joshua (Oscar winner Cuba Gooding Jr.), a
hard-nosed collector for a ruthless mob boss (Miguel Ferrer),
lives in a world filled with brutal violence and beautiful women.
But when he finds himself in the middle of a power struggle with the most dominant drug lord in the business (Harvey Keitel),
Joshua knows that one false move could cause everything to come crashing down. Packed with intense action and gripping suspense,
this explosive tale of vengeance shows how just one wrong turn can lead to a dead end.

Source.............: Retail | NTSC | DVD9
Audio : English
Subs: Dutch (hardcoded)

Format : MPEG-4
Format profile : Base Media
Codec ID : isom
File size : 839 MiB
Duration : 1h 30mn
Overall bit rate : 1 293 Kbps

[code]
Video
ID : 1
Format : MPEG-4 Visual
Format profile : [email protected]
Format settings, BVOP : No
Format settings, QPel : No
Format settings, GMC : No warppoints
Format settings, Matrix : Default (H.263)
Codec ID : 20
Duration : 1h 30mn
Bit rate mode : Variable
Bit rate : 1 161 Kbps
Width : 720 pixels
Height : 406 pixels
Display aspect ratio : 16/9
Frame rate mode : Constant
Frame rate : 23.976 fps
Resolution : 24 bits
Colorimetry : 4:2:0
Scan type : Progressive
Bits/(Pixel*Frame) : 0.166
Stream size : 753 MiB (90%)
Writing library : Lavc51.40.4


Audio
ID : 2
Format : AAC
Format/Info : Advanced Audio Codec
Format version : Version 4
Format profile : LC
Format settings, SBR : No
Codec ID : 40
Duration : 1h 30mn
Bit rate mode : Variable
Bit rate : 128 Kbps
Channel(s) : 2 channels
Channel positions : L R
Sampling rate : 48.0 KHz
Resolution : 16 bits
Stream size : 82.9 MiB (10%)[/code]


Weblink : http://www.imdb.com/title/tt1393000


*****************************************


Brought to you by
Pioen
http://i226.photobucket.com/albums/dd118/FloraKing/Avator/bloemenmeisje.gif

2Lions Team



http://i845.photobucket.com/albums/ab16/hortencia9/_96637_four_weddings_and_a_funeral_.jpg



2Lions-Team for all your Dutch MOVIES and more

*****************************************

DON T HIT AND RUN Niet gelijk afhaken als de film binnen is blijf seeden.

Related torrents

Torrent NameAddedSizeSeedLeechHealth
1 Year+ - in Movies4.3 GB26222
1 Year+ - in Movies852.71 MB00
1 Year+ - in Movies852.75 MB56
1 Year+ - in Movies1.6 GB2248
1 Year+ - in Movies810.59 MB11

Comments (0 Comments)




Please login or create a FREE account to post comments

Latest Searches

| Im a sorry | elf lol | bob margaret Season 4 | Lenoras | mygf hayden adams | Matt Braunger | elf ettv | Weeds Music Series | SinsLife 16 08 31 Kissa Sins Deep Throat Specialist 1080p MP4 KTR | 91 pieces |