Quick Browse
Movies
TV shows
Music
Games
Applications
Anime
Other
Facebook
Advertising

Friends
Torrent Download
Movie4u
1337x.to
Torrent Downloads




X-Men.First.Class.(2011).TS.XviD.AC3-unhidegroup


    Seeders : 36      Leechers : 12
Hash :083732FCFF7D8BE44E21F630C1AF6417B514263A
Added :1 Year+ by rusVerified torrent uploader in Movies
Size :1.2 GB
Stream :WATCH ONLINE @ Movie4u


X-Men.First.Class.(2011).TS.XviD.AC3-unhidegroup
Free and Fast Download with Usenet 300GB+ free







Trackers List

Tracker NameLast CheckStatusSeedersLeechers




Torrent File Content (4 files)


X-Men.First.Class.(2011).TS.XviD.AC3-unhidegroup
     -info-.nfo -
1.86 KB

     ^ Enter Here^.url -
148 bytes

     X-M F.C-unhidegroup.avi -
1.2 GB

     X-M F.C-unhidegroup.srt -
82.46 KB



Description



http://store.picbg.net/pubpic/7D/37/ece507e070377d37.jpg


http://store.picbg.net/pubpic/97/9C/74de6456d6fe979c.gif

http://store.picbg.net/pubpic/D8/C9/e0ed68d874f6d8c9.gif
unhidegroup

=============================================================
General
Complete name : X-Men.First.Class.(2011).TS.XviD.AC3-unhidegroup\X-M.F.C-unhidegroup.avi
Format : AVI
Format/Info : Audio Video Interleave
File size : 1.20 GiB
Duration : 2h 3mn
Overall bit rate : 1 391 Kbps
Writing application : Lavf52.39.0
Writing library : VirtualDub build 32817/release

Video
ID : 0
Format : MPEG-4 Visual
Codec ID : DIV3
Codec ID/Hint : DivX 3 Low
Duration : 2h 3mn
Bit rate : 1 190 Kbps
Width : 640 pixels
Height : 480 pixels
Display aspect ratio : 4:3
Frame rate : 23.976 fps
Color space : YUV
Chroma subsampling : 4:2:0
Bit depth : 8 bits
Bits/(Pixel*Frame) : 0.162
Stream size : 1.03 GiB (86%)

Audio
ID : 1
Format : AC-3
Format/Info : Audio Coding 3
Mode extension : CM (complete main)
Codec ID : 2000
Duration : 2h 3mn
Bit rate mode : Constant
Bit rate : 192 Kbps
Channel(s) : 2 channels
Channel positions : Front: L R
Sampling rate : 48.0 KHz
Bit depth : 16 bits
Stream size : 170 MiB (14%)
Alignment : Aligned on interleaves
Interleave, duration : 42 ms (1.00 video frame)
Interleave, preload duration : 512 ms

http://store.picbg.net/pubpic/40/48/c3367f994c084048.jpg


http://store.picbg.net/pubpic/F1/C5/0bbf61c3eb4df1c5.jpg

Related torrents

Torrent NameAddedSizeSeedLeechHealth
1 Year+ - in Movies1.37 GB1010
1 Year+ - in Movies1.38 GB00
1 Year+ - in Movies743.9 MB10
1 Bad
Verified torrent
1 Year+ - in Movies743.91 MB10
1 Comments
2 Good
1 Year+ - in Movies1.38 GB11270

Comments (0 Comments)




Please login or create a FREE account to post comments

Latest Searches

| madlib flight | FemaleFakeTaxi Paris Princess Rebecca M Lesbians | 25 d diciembre | Yo gotti F U | Absolutely Fabulous The Movie 2016 720p BluRay H264 AAC RARBG | Hindi Video songs Honey | khalifa we | bbc bolt | cuckold mia | cant have ape drums remix |