Quick Browse
Movies
TV shows
Music
Games
Applications
Anime
Other
Facebook
Friends
Torrent Download
Free Movies
1337x.to
Torrent Downloads

Verified torrent X-Men First Class 2011 TS READNFO XViD - IMAGiNE


    Seeders : 3      Leechers : 494
Hash :C4E4AFA8ED2581CF5664168CB31A3588494A2E6D
Added :1 Year+ by memory100Verified torrent uploader in Movies
Size :1.38 GB
Stream :Watch Full Movies Online @ Movie4u
Share :


X-Men First Class 2011 TS READNFO XViD - IMAGiNE
Anonymous and Direct Download 300GB+ free







Warning! Do not Download Torrents Without a VPN!
Your IP Address is .   And Location is
Your Internet Provider and Government can track your torrent Activity!  Hide your IP ADDRESS with a VPN!
We Strongly Recommend Using OneVPN’s Torrent VPN to Anonymize your Torrenting. It's Very Cheap!

Note :

Please Update (Trackers Info) Before Downloading Torrents to See Updated Seeders And Leechers for Batter Download Speed.

Trackers List

Tracker NameLast CheckStatusSeedersLeechers




Torrent File Content (9 files)


X-Men First Class 2011 TS READNFO XViD - IMAGiNE
     Budget seedboxs.txt -
44 bytes

     NW RG.nfo -
12.96 KB

     Torrent downloaded from Demonoid.me.txt -
46 bytes

     X-Men First Class 2011 TS READNFO XViD - IMAGiNE SAMPLE.avi -
8.43 MB

     X-Men First Class 2011 TS READNFO XViD - IMAGiNE.NFO -
5.81 KB

     X-Men First Class 2011 TS READNFO XViD - IMAGiNE.avi -
1.37 GB

     dreamthe.net.txt -
91 bytes

     northernwarriors.net.txt -
135 bytes

     sceneunderground.org.txt -
77 bytes



Description



http://i.imgur.com/v2le8.jpg

[code]
X-Men First Class 2011 TS READNFO XViD - IMAGiNE

Ripper ...........: IMAGiNE
IMDB Rating.......: 8.3/10
Video Codec.......: XVID
Release Date......: 08/06/11
Audio Codec.......: MP3
Theatre Date......: 03/06/11
Audio Bitrate.....: 128
Runtime.......: 2h 03mn
Subtitles.........: ENGLISH WHEN NEEDED
Resolution......: 720 x 288
IMDb URL..........:http://www.imdb.com/title/tt1270798/
Language..........: ENGLISH

DETAILS:

Video
ID : 0
Format : MPEG-4 Visual
Format profile : Advanced [email protected]
Format settings, BVOP : 2
Format settings, QPel : No
Format settings, GMC : No warppoints
Format settings, Matrix : Default (MPEG)
Muxing mode : Packed bitstream
Codec ID : XVID
Codec ID/Hint : XviD
Duration : 2h 3mn
Bit rate : 1 450 Kbps
Width : 720 pixels
Height : 288 pixels
Display aspect ratio : 2.500
Frame rate : 23.976 fps
Color space : YUV
Chroma subsampling : 4:2:0
Bit depth : 8 bits
Scan type : Progressive
Compression mode : Lossy
Bits/(Pixel*Frame) : 0.292
Stream size : 1.25 GiB (91%)
Writing library : XviD 61

Audio
ID : 1
Format : MPEG Audio
Format version : Version 1
Format profile : Layer 3
Codec ID : 55
Codec ID/Hint : MP3
Duration : 2h 3mn
Bit rate mode : Constant
Bit rate : 128 Kbps
Channel(s) : 2 channels
Sampling rate : 44.1 KHz
Compression mode : Lossy
Stream size : 113 MiB (8%)
Alignment : Split accross interleaves
Interleave, duration : 42 ms (1.00 video frame)

Plot:
In 1962, Charles Xavier starts up a school and later a team, for humans with superhuman abilities. Among them is Erik Lensherr, his best friend... and future archenemy.

SOURCES:
VIDEO: ........... Thanx Mate
AUDIO: ........... Thanx Matey

NOTES:
IMAGiNE bringing you another release..........
X-Men First Class TS .........
Ok here we are with our version of X-Men First Class........

Source files were very nice but they needed to be cropped and rotated differently....

So we cut the movie into pieces and wrote up seperate scripts for each to crop / rotate and resize.....

now for the most part 90% of this is stable, but from 1.19.30 to 1.23.30 it gets a little rough...

but other than that most of the camera movement wont be noticable much, but there is about 1 minute worth of random spots where we chose to over crop rather than have picture shift so might seem like AR is off from time to time but wont last long, about 5 - 20 seconds......

Now the source we used was missing a few minutes in 2 areas so we used the russian cam to fill in the blanks.........
so there is a 4 minute 20 second splice at 1.15.14 and then the last 11 minutes and 11 seconds finish it up Audio is very nice LiNE we filtered, synced and muxed to our encode

Enjoy Folks!
[/code]
Screens:
http://i.imgur.com/gHNdu.jpg

http://i.imgur.com/m8I30.jpg

http://i.imgur.com/lIIFV.jpg

http://i.imgur.com/NpzU3.jpg

Related torrents

Torrent NameAddedSizeSeedLeechHealth
1 Comments
2 Good
1 Year+ - in Movies1.38 GB11270
1 Year+ - in Movies1.38 GB10
Verified torrent
1 Year+ - in Movies737.84 MB47
1 Year+ - in Movies1.93 GB00
1 Year+ - in Movies1.93 GB00

Comments (0 Comments)




Please login or create a FREE account to post comments

Latest Searches

| Kat Dior Tiny Latina Teen Takes a Rough Pounding 2016 FullHD 1080p | robert silverberg tower of glass pdf | bty busy | lost labyrinth 4 7 1 | nubilefilms sydney 12 | 90 | cirugia | death hill | hardcopy pro 4 7 | leftovers s03e06 hdtv x264 killers ettv |