Quick Browse
Movies
TV shows
Music
Games
Applications
Anime
Other
Facebook
Advertising

Friends
Torrent Download
Movie4u
1337x.to
Torrent Downloads




Verified torrent X-Men First Class 2011 TS V2 XViD-EP1C


    Seeders : 0      Leechers : 2
Hash :6C7520B7B42556E3B134B5101D9FE4BE911531EA
Added :1 Year+ by ChrisAkselVerified torrent uploader in Movies
Size :1.37 GB
Stream :WATCH ONLINE @ Movie4u


X-Men First Class 2011 TS V2 XViD-EP1C
Free and Fast Download with Usenet 300GB+ free







Trackers List

Tracker NameLast CheckStatusSeedersLeechers




Torrent File Content (3 files)


X-Men.First.Class.2011.TS.V2.XViD-EP1C
     Sample.avi -
5.8 MB

     X-Men.First.Class.2011.TS.V2.XViD-EP1C.avi -
1.37 GB

     X-Men.First.Class.2011.TS.V2.XViD-EP1C.nfo -
3.73 KB



Description



::::::::::::  EP1C Presents  ::::::::::::

::File:: X-Men.First.Class.2011.TS.V2.XViD-EP1C

::Video Source:: Russian (New Source)
::Audio Source:: Own
::Subtitles::::: Hardcoded (Thx IMAGiNE!)

::Language:::::: English
::IMDB:::::::::: http://www.imdb.com/title/tt1270798/

In 1963, Charles Xavier starts up a school and later a team, for humans with superhuman abilities. Among them is Erik Lensherr, his best friend... and future archenemy.

::Specs:::::::::

Format : AVI
Format/Info : Audio Video Interleave
File size : 1.37 GiB
Duration : 2h 3mn
Overall bit rate : 1 589 Kbps
Writing application : VirtualDubMod 1.5.10.2 (build 2542/release)
Writing library : VirtualDubMod build 2542/release

Video
ID : 0
Format : MPEG-4 Visual
Format profile : Advanced [email protected]
Format settings, BVOP : Yes
Format settings, QPel : No
Format settings, GMC : No warppoints
Format settings, Matrix : Default (H.263)
Muxing mode : Packed bitstream
Codec ID : XVID
Codec ID/Hint : XviD
Duration : 2h 3mn
Bit rate : 1 451 Kbps
Width : 720 pixels
Height : 336 pixels
Display aspect ratio : 2.2:1
Frame rate : 25.000 fps
Color space : YUV
Chroma subsampling : 4:2:0
Bit depth : 8 bits
Scan type : Progressive
Bits/(Pixel*Frame) : 0.240
Stream size : 1.25 GiB (91%)
Writing library : XviD 58

Audio
ID : 1
Format : MPEG Audio
Format version : Version 1
Format profile : Layer 3
Codec ID : 55
Codec ID/Hint : MP3
Duration : 2h 3mn
Bit rate mode : Constant
Bit rate : 128 Kbps
Channel(s) : 2 channels
Sampling rate : 44.1 KHz
Stream size : 113 MiB (8%)
Alignment : Split accross interleaves
Interleave, duration : 40 ms (1.00 video frame)
Interleave, preload duration : 500 ms

::NOTES:::::::::
Presenting Version 2 TS of X-Men, First Class. Different source from v1. Subs
hardcoded for all the foreign parts when needed. Thanks IMAGiNE for the subpack.
Enjoy //EP1C

:: Got something we might be interested in? contact us: [email protected] ::

:::::::::::::::::::::::::::::::: RESPECT :::::::::::::::::::::::::::::::::
IMAGiNE, Rx, FLAWL3SS, ViSiON, T0XiC, HiVE, bobwhite & All Our Friends!

:::::::::::::::: We Are ::::::::::::::::
:::::: Surpassing the usual or ordinary ::::::
:::::::::::::::::: Heroic and impressive in quality ::::::::::::::::::
:::::::::::::::::::::::::::::::: EP1C ::::::::::::::::::::::::::::::::

Screens :
http://noob.hu/2011/06/05/vlcsnap-2011-06-05-08h56m28s207.png

http://noob.hu/2011/06/05/vlcsnap-2011-06-05-08h57m21s230.png

http://noob.hu/2011/06/05/vlcsnap-2011-06-05-08h57m59s78.png

http://noob.hu/2011/06/05/vlcsnap-2011-06-05-08h57m30s65.png

http://noob.hu/2011/06/05/vlcsnap-2011-06-05-08h55m59s171.png

Related torrents

Torrent NameAddedSizeSeedLeechHealth
1 Year+ - in Movies1.37 GB1010
1 Year+ - in Movies1.37 GB00
1 Year+ - in Movies1.37 GB00
1 Year+ - in Movies1.37 GB00
1 Comments
1 Bad
Verified torrent
1 Year+ - in Movies1.37 GB1,365588

Comments (0 Comments)




Please login or create a FREE account to post comments

Latest Searches

| making of apollo 13 dvd extra mp4 | jessi june and taylor | NITRO PRO 10 5 5 9 SERIAL KEY | m s v hit songs | jugni songs | VA BEATPORT INDIE DANCE NU DISCO TOP 100 JUNE 2015 2015 | le noble coran et la traduction en langue francaise | Mahler Symphonies 1 9 Lied von der Erde Kindertotenlieder Bernstein NYP SACD ISOs | CCleaner v5 17 5590 Setup Business Professional Technician Crack Core X | Bhabhi ki |