Quick Browse
Movies
TV shows
Music
Games
Applications
Anime
Other
Facebook
Advertising

Friends
Torrent Download
Movie4u
1337x.to
Torrent Downloads




Verified torrent X-Men First Class 2011 TS V2 XViD-EP1C


    Seeders : 1365      Leechers : 588
Hash :181F733E4A221C31177A525976EDDEC7444B0A13
Added :1 Year+ by memory100Verified torrent uploader in Movies
Size :1.37 GB
Stream :WATCH ONLINE @ Movie4u


X-Men First Class 2011 TS V2 XViD-EP1C
Free and Fast Download with Usenet 300GB+ free







Trackers List

Tracker NameLast CheckStatusSeedersLeechers




Torrent File Content (9 files)


X-Men.First.Class.2011.TS.V2.XViD-EP1C
     X-Men.First.Class.2011.TS.V2.XViD-EP1C.avi -
1.37 GB

     Sample.avi -
5.8 MB

     NW RG.nfo -
13.08 KB

     X-Men.First.Class.2011.TS.V2.XViD-EP1C.nfo -
3.73 KB

     northernwarriors.net.txt -
137 bytes

     dreamthe.net.txt -
93 bytes

     sceneunderground.org.txt -
77 bytes

     Torrent downloaded from Demonoid.me.txt -
46 bytes

     Budget seedboxs.txt -
44 bytes



Description



http://img706.imageshack.us/img706/4351/xmeno.jpg

[code]
: :File:: X-Men.First.Class.2011.TS.V2.XViD-EP1C
::Video Source:: Russian (New Source)
::Audio Source:: Own
::Subtitles::::: Hardcoded (Thx IMAGiNE!)
::Language:::::: English
::IMDB:::::::::: http://www.imdb.com/title/tt1270798/

In 1963, Charles Xavier starts up a school and later a team, for humans with superhuman abilities. Among them is Erik Lensherr, his best friend... and future archenemy.

::Specs:::::::::
Format : AVI
Format/Info : Audio Video Interleave
File size : 1.37 GiB
Duration : 2h 3mn
Overall bit rate : 1 589 Kbps
Writing application : VirtualDubMod 1.5.10.2 (build 2542/release)
Writing library : VirtualDubMod build 2542/release

Video
ID : 0
Format : MPEG-4 Visual
Format profile : Advanced [email protected]
Format settings, BVOP : Yes
Format settings, QPel : No
Format settings, GMC : No warppoints
Format settings, Matrix : Default (H.263)
Muxing mode : Packed bitstream
Codec ID : XVID
Codec ID/Hint : XviD
Duration : 2h 3mn
Bit rate : 1 451 Kbps
Width : 720 pixels
Height : 336 pixels
Display aspect ratio : 2.2:1
Frame rate : 25.000 fps
Color space : YUV
Chroma subsampling : 4:2:0
Bit depth : 8 bits
Scan type : Progressive
Bits/(Pixel*Frame) : 0.240
Stream size : 1.25 GiB (91%)
Writing library : XviD 58

Audio
ID : 1
Format : MPEG Audio
Format version : Version 1
Format profile : Layer 3
Codec ID : 55
Codec ID/Hint : MP3
Duration : 2h 3mn
Bit rate mode : Constant
Bit rate : 128 Kbps
Channel(s) : 2 channels
Sampling rate : 44.1 KHz
Stream size : 113 MiB (8%)
Alignment : Split accross interleaves
Interleave, duration : 40 ms (1.00 video frame)
Interleave, preload duration : 500 ms

::NOTES:::::::::
Presenting Version 2 TS of X-Men, First Class. Different source from v1. Subs
hardcoded for all the foreign parts when needed. Thanks IMAGiNE for the subpack.

Enjoy //EP1C
[/code]
Screens:
http://img21.imageshack.us/img21/7192/91709467.png

http://img695.imageshack.us/img695/2248/28999282.png

http://img832.imageshack.us/img832/214/28663433.png

http://img217.imageshack.us/img217/6198/53798715.png

Related torrents

Torrent NameAddedSizeSeedLeechHealth
1 Year+ - in Movies1.37 GB1010
1 Year+ - in Movies1.37 GB00
1 Year+ - in Movies1.37 GB00
1 Year+ - in Movies1.37 GB00
Verified torrent
1 Year+ - in Movies1.37 GB02

Comments (1 comment)




gidster47
+1

Added 1 Year+
this flicker a lot and the colour not good on it
Please login or create a FREE account to post comments

Latest Searches

| atkgirlfriends callaway | photoshop adobe cs3 crack | Danielle Maye Worship My Pregnant Body | mozart the violin concertos carmignola abbado orchestra mozart 2008 | 2 photos | rio 2011 ntsc dvdrip dd5 1 nl subs dmt | ermac | American History 2016 Full Year Issues Collection PDF zeke23 | rock roll 80s | BigTitsAtWork 16 12 04 Alix Lynx Daddys Hardest Worker XXX 1080p MP4 KTR |