Quick Browse
Movies
TV shows
Music
Games
Applications
Anime
Other
Facebook
Advertising

Friends
Torrent Download
Movie4u
1337x.to
Torrent Downloads




Verified torrent X-Men First Class 2011 TS XViD-EP1C


    Seeders : 1      Leechers : 10
Hash :380CA4BB40768CCC870740AE698AD81DB3A22147
Added :1 Year+ by memory100Verified torrent uploader in Movies
Size :1.59 GB
Stream :WATCH ONLINE @ Movie4u


X-Men First Class 2011 TS XViD-EP1C
Free and Fast Download with Usenet 300GB+ free







Trackers List

Tracker NameLast CheckStatusSeedersLeechers




Torrent File Content (10 files)


X-Men.First.Class.2011.TS.XViD-EP1C
     X-Men.First.Class.2011.TS.XViD-EP1C2.avi -
1.56 GB

     Sample1.avi -
18.78 MB

     Sample2.avi -
11.94 MB

     NW RG.nfo -
13.08 KB

     X-Men.First.Class.2011.TS.XViD-EP1C.nfo -
3.73 KB

     northernwarriors.net.txt -
137 bytes

     dreamthe.net.txt -
93 bytes

     sceneunderground.org.txt -
77 bytes

     Torrent downloaded from Demonoid.me.txt -
46 bytes

     Budget seedboxs.txt -
44 bytes



Description



http://img706.imageshack.us/img706/4351/xmeno.jpg

[code]
::File:: X-Men.First.Class.2011.TS.XViD-EP1C

::Video Source:: Russian
::Audio Source:: Own
::Subtitles::::: Hardcoded (Thx IMAGiNE!)

::Language:::::: English
::IMDB:::::::::: http://www.imdb.com/title/tt1270798/

In 1963, Charles Xavier starts up a school and later a team, for humans with suerhuman abilities. Among them is Erik Lensherr, his best friend... and future archenemy.

::Specs:::::::::

Format : AVI
Format/Info : Audio Video Interleave
File size : 1.56 GiB
Duration : 1h 59mn
Overall bit rate : 1 876 Kbps
Writing application : VirtualDubMod 1.5.10.2 (build 2540/release)
Writing library : VirtualDubMod build 2540/release

Video
ID : 0
Format : MPEG-4 Visual
Format profile : Advanced [email protected]
Format settings, BVOP : Yes
Format settings, QPel : No
Format settings, GMC : No warppoints
Format settings, Matrix : Default (H.263)
Muxing mode : Packed bitstream
Codec ID : XVID
Codec ID/Hint : XviD
Duration : 1h 59mn
Bit rate : 1 738 Kbps
Width : 720 pixels
Height : 288 pixels
Display aspect ratio : 2.500
Frame rate : 25.000 fps
Color space : YUV
Chroma subsampling : 4:2:0
Bit depth : 8 bits
Scan type : Progressive
Bits/(Pixel*Frame) : 0.335
Stream size : 1.45 GiB (93%)
Writing library : XviD 58

Audio
ID : 1
Format : MPEG Audio
Format version : Version 1
Format profile : Layer 3
Codec ID : 55
Codec ID/Hint : MP3
Duration : 1h 59mn
Bit rate mode : Constant
Bit rate : 128 Kbps
Channel(s) : 2 channels
Sampling rate : 44.1 KHz
Video delay : 11ms
Stream size : 109 MiB (7%)
Alignment : Split accross interleaves
Interleave, duration : 40 ms (1.00 video frame)
Interleave, preload duration : 500 ms

::NOTES:::::::::
Presenting the first TS of X-Men, First Class. Subs hardcoded for all the foreign parts when needed. Thanks IMAGiNE for the subpack.

Enjoy //EP1C
[/code]
Screens:
http://img818.imageshack.us/img818/7929/50381553.png

http://img31.imageshack.us/img31/1797/90871578.png

http://img685.imageshack.us/img685/5962/36941623.png

http://img89.imageshack.us/img89/4318/82127135.png

http://img819.imageshack.us/img819/4602/86338810.png

Related torrents

Torrent NameAddedSizeSeedLeechHealth
1 Year+ - in Movies1.37 GB1010
1 Year+ - in Movies1.37 GB00
1 Year+ - in Movies1.37 GB00
1 Year+ - in Movies1.37 GB00
1 Comments
1 Bad
Verified torrent
1 Year+ - in Movies1.37 GB1,365588

Comments (0 Comments)




Please login or create a FREE account to post comments

Latest Searches

| bowie very best of | Sully 2016 720p BRRip | sex accounts | que og Johnson | sygic v16 4 | more than kissing cousins desperate pleasures | eset smart security v7 crack | action jackson 2014 190kbps tkb | dual audio | stella clara |