Quick Browse
Movies
TV shows
Music
Games
Applications
Anime
Other
Facebook
Advertising

Friends
Torrent Download
Movie4u
1337x.to
Torrent Downloads




Verified torrent Yo Gotti - Look In The Mirror [KingPinVideos]


    Seeders : 1      Leechers : 0
Hash :3C4FDB82072F91DC4A07F1B0759FB3A773BF2825
Added :1 Year+ by KingPinVerified torrent uploader in Music - Music Videos
Size :82.35 MB
Stream :WATCH ONLINE @ Movie4u


Yo Gotti - Look In The Mirror [KingPinVideos]
Free and Fast Download with Usenet 300GB+ free







Trackers List

Tracker NameLast CheckStatusSeedersLeechers




Torrent File Content (5 files)


Yo Gotti - Look In The Mirror [KingPinVideos]
     Yo Gotti - Look In The Mirror [KingPinVideos].mpg -
82.35 MB

     Yo Gotti - Look In The Mirror [KingPinVideos].nfo -
1.89 KB

     Yo Gotti - Look In The Mirror [KingPinVideos].txt -
1.63 KB

     Torrent downloaded from Demonoid.com.txt -
47 bytes

     Torrent Downloaded from Limetorrents.com.txt -
46 bytes



Description



http://img337.imageshack.us/img337/6079/yogottimirror.png


http://img822.imageshack.us/img822/4941/yogottimirror2.png


[code]General
Complete name : Yo Gotti - Look In The Mirror [KingPinVideos].mpg
Format : MPEG-PS
File size : 82.3 MiB
Duration : 4mn 1s
Overall bit rate : 2 857 Kbps
Writing library : encoded by TMPGEnc 4.0 XPress Version. 4.7.4.299

Video
ID : 224 (0xE0)
Format : MPEG Video
Format version : Version 1
Format settings, BVOP : Yes
Format settings, Matrix : Default
Duration : 4mn 1s
Bit rate mode : Constant
Bit rate : 2 616 Kbps
Nominal bit rate : 2 700 Kbps
Width : 384 pixels
Height : 208 pixels
Display aspect ratio : 16:9
Frame rate : 29.970 fps
Resolution : 8 bits
Scan type : Progressive
Bits/(Pixel*Frame) : 1.093
Stream size : 75.4 MiB (92%)
Writing library : TMPGEnc XPress 4.7.4.299

Audio
ID : 192 (0xC0)
Format : MPEG Audio
Format version : Version 1
Format profile : Layer 2
Duration : 4mn 1s
Bit rate mode : Constant
Bit rate : 128 Kbps
Channel(s) : 2 channels
Sampling rate : 48.0 KHz
Stream size : 3.69 MiB (4%)[/code]

Related torrents

Torrent NameAddedSizeSeedLeechHealth
5 months ago - in Music10.35 MB00
1 Year+ - in Other90.04 MB02
1 Year+ - in Music6.95 MB00
1 Year+ - in Other15.14 MB1815
1 Year+ - in Music384.08 MB110

Comments (0 Comments)




Please login or create a FREE account to post comments

Latest Searches

| Now Vol 42 | 3 j soul brothers r y u s e i | march 2016 playboy | Developmental Cell | elvis crespo original | empire of state alicia keys | dony w | kiss carnival of souls | shades of kink 6 1080p webrip mp4 gush | courtney love hole |