Quick Browse
Movies
TV shows
Music
Games
Applications
Anime
Other

Latest Articles

Friends
Torrents.me
Torrent Download
Free Movies
1337x
RARBG
Torrent Downloads

Verified torrent Yo Gotti - Look In The Mirror [KingPinVideos]


    Seeders : 1      Leechers : 0

Hash :3C4FDB82072F91DC4A07F1B0759FB3A773BF2825
Added :1 Year+ by KingPinVerified torrent uploader in Music - Music Videos
Size :82.35 MB
Stream :Watch Online Full Movie @ Movie4u
Share :


Yo Gotti - Look In The Mirror [KingPinVideos]
Download Direct And Anonymously







Warning! Do not Download Torrents Without a VPN!
Your IP Address is .   And Location is
Your Internet Provider and Government can track your torrent Activity!  Hide your IP ADDRESS with a VPN!
We Strongly Recommend Using CyberGhost VPN to Anonymize your Torrenting.

Note :

Please Update (Trackers Info) Before Downloading Torrents to See Updated Seeders And Leechers for Batter Download Speed.

Trackers List

Tracker NameLast CheckStatusSeedersLeechers




Torrent File Content (5 files)


Yo Gotti - Look In The Mirror [KingPinVideos]
     Yo Gotti - Look In The Mirror [KingPinVideos].mpg -
82.35 MB

     Yo Gotti - Look In The Mirror [KingPinVideos].nfo -
1.89 KB

     Yo Gotti - Look In The Mirror [KingPinVideos].txt -
1.63 KB

     Torrent downloaded from Demonoid.com.txt -
47 bytes

     Torrent Downloaded from Limetorrents.com.txt -
46 bytes



Description



http://img337.imageshack.us/img337/6079/yogottimirror.png


http://img822.imageshack.us/img822/4941/yogottimirror2.png


[code]General
Complete name : Yo Gotti - Look In The Mirror [KingPinVideos].mpg
Format : MPEG-PS
File size : 82.3 MiB
Duration : 4mn 1s
Overall bit rate : 2 857 Kbps
Writing library : encoded by TMPGEnc 4.0 XPress Version. 4.7.4.299

Video
ID : 224 (0xE0)
Format : MPEG Video
Format version : Version 1
Format settings, BVOP : Yes
Format settings, Matrix : Default
Duration : 4mn 1s
Bit rate mode : Constant
Bit rate : 2 616 Kbps
Nominal bit rate : 2 700 Kbps
Width : 384 pixels
Height : 208 pixels
Display aspect ratio : 16:9
Frame rate : 29.970 fps
Resolution : 8 bits
Scan type : Progressive
Bits/(Pixel*Frame) : 1.093
Stream size : 75.4 MiB (92%)
Writing library : TMPGEnc XPress 4.7.4.299

Audio
ID : 192 (0xC0)
Format : MPEG Audio
Format version : Version 1
Format profile : Layer 2
Duration : 4mn 1s
Bit rate mode : Constant
Bit rate : 128 Kbps
Channel(s) : 2 channels
Sampling rate : 48.0 KHz
Stream size : 3.69 MiB (4%)[/code]

Related torrents

Torrent NameAddedSizeSeedLeechHealth
10 months ago - in Music2.34 MB00
1 Year+ - in Music10.35 MB00
1 Year+ - in Other90.04 MB02
1 Year+ - in Music6.95 MB00
1 Year+ - in Music79.96 MB42141

Note :

Feel free to post any comments about this torrent, including links to Subtitle, samples, screenshots, or any other relevant information. Please Dont Download anything from Comments, And Dont Post Links to Streaming Sites like Fmovies, Xmovies8, 123Movies, GoMovies, CMovieshd, Solarmovie, Watchfree, Putlockers, GoStream, m4ufree etc.

Comments (0 Comments)




Please login or create a FREE account to post comments

Latest Searches

| 3 miracles | 8 mile bluray 2002 | The Bold And The Beautiful S29 Ep7213 2015 11 23 | 3D Batsugun Kanojo | The Born Losers 1967 kvcd 0rgis tRg | Freshers Sex Suspicious Parents s01e01 | mozart horn concertos flac | The Flash s04e19 ETTV HDTV | baby music brain development | femdom japanese |