Quick Browse
Movies
TV shows
Music
Games
Applications
Anime
Other
Facebook
Advertising

Friends
Torrent Download
Movie4u
1337x.to
Torrent Downloads




Verified torrent Young Adult 2011 CAM Xvid READNFO-26K


    Seeders : 1      Leechers : 0
Hash :DEF85C297DB95511664BC88B27F69DD140DBC21B
Added :1 Year+ by memory100Verified torrent uploader in Movies
Size :1.6 GB
Stream :WATCH ONLINE @ Movie4u


Young Adult 2011 CAM Xvid READNFO-26K
Free and Fast Download with Usenet 300GB+ free







Trackers List

Tracker NameLast CheckStatusSeedersLeechers




Torrent File Content (7 files)


Young Adult 2011 CAM Xvid READNFO-26K
     sample.avi -
23.68 MB

     sceneunderground.org.txt -
77 bytes

     att-networks.com.txt -
39 bytes

     Young Adult 2011 CAM Xvid READNFO-26K.nfo -
3.52 KB

     Torrent downloaded from Demonoid.me.txt -
46 bytes

     Young Adult 2011 CAM Xvid READNFO-26K.avi -
1.58 GB

     HDSceneRG.txt -
115 bytes



Description



http://img507.imageshack.us/img507/4874/youngm.jpg

[code]
Young Adult 2011 CAM Xvid READNFO-26K

Imdb:
http://www.imdb.com/title/tt1625346/

Plot:
Soon after her divorce, a fiction writer returns to her home in small-town Minnesota, looking to rekindle a romance with her ex-boyfriend, who is now married with kids.

Sources:
Thnxs m8!!!!!

Notes:
WHY READNFO ? the source was recorded on a very bad angel!
audio is not so bad either pretty good for a cam :)
so rotated, cropped and added color to the video !
enjoy!
special thnxs to a friend for the help you rock bro :)

Greetz:
Xtreme Encode|FYA|ILLUMANTI|CM8|RX|VISION|HDSCENE|NIGHTMAREZ|xTriLL|DTRG|CRYS|REMIXHD|BIDA|RX|REFILL| INSPiRAL
To all the people who have helped me :P you know who you are

Anything to offer email us @: [email protected]

Video
ID : 0
Format : MPEG-4 Visual
Format profile : Advanced [email protected]
Format settings, BVOP : 2
Format settings, QPel : No
Format settings, GMC : No warppoints
Format settings, Matrix : Default (H.263)
Muxing mode : Packed bitstream
Codec ID : XVID
Codec ID/Hint : XviD
Duration : 1h 28mn
Bit rate : 2 396 Kbps
Width : 640 pixels
Height : 304 pixels
Display aspect ratio : 2.2:1
Frame rate : 59.940 fps
Color space : YUV
Chroma subsampling : 4:2:0
Bit depth : 8 bits
Scan type : Progressive
Compression mode : Lossy
Bits/(Pixel*Frame) : 0.205
Stream size : 1.48 GiB (94%)
Writing library : XviD 64

Audio
ID : 1
Format : MPEG Audio
Format version : Version 1
Format profile : Layer 3
Mode : Joint stereo
Mode extension : MS Stereo
Codec ID : 55
Codec ID/Hint : MP3
Duration : 1h 28mn
Bit rate mode : Constant
Bit rate : 128 Kbps
Channel(s) : 2 channels
Sampling rate : 44.1 KHz
Compression mode : Lossy
Delay relative to video : 18ms
Stream size : 81.2 MiB (5%)
Alignment : Split accross interleaves
Interleave, duration : 17 ms (1.00 video frame)
Writing library : LAME3.98Y’ÉŽ6–¤

[/code]
Screens:
http://img687.imageshack.us/img687/93/vlcsnap2012010310h54m03.png

http://img259.imageshack.us/img259/9071/vlcsnap2012010310h54m07.png

http://img202.imageshack.us/img202/8517/vlcsnap2012010310h54m13.png

http://img844.imageshack.us/img844/4549/vlcsnap2012010310h54m21.png


http://img851.imageshack.us/img851/5503/26ks.jpg
#
Thank you smallz for banner!

Related torrents

Torrent NameAddedSizeSeedLeechHealth
1 Year+ - in Movies1.58 GB00
1 Year+ - in Movies1.6 GB355
1 Year+ - in Movies710.1 MB013
1 Year+ - in Movies1.28 GB123
1 Year+ - in Movies1.5 GB113

Comments (0 Comments)




Please login or create a FREE account to post comments

Latest Searches

| el debarge All This Love | Special Ops Mission S01 | Ash vs Evil Dead S02E08 720p WEBRip X264 DEFLATEettv | the whole nine yards 2000 brrip 720p dual audio english hindi stromsid | cmct | A day t remember | Bobbi starr magical feet | r soup | mature marie s | Adobe Photoshop Lightroom CC 6 8 |