Quick Browse
Movies
TV shows
Music
Games
Applications
Anime
Other
Facebook
Advertising

Friends
Torrent Download
Movie4u
1337x.to
Torrent Downloads




Verified torrent Young Adults 2011 720p BRRip XviD AC3-26k


    Seeders : 2      Leechers : 0
Hash :342CBDF866C0A6ED6918E5514D66B3D05D6AF671
Added :1 Year+ by memory100Verified torrent uploader in Movies
Size :2.39 GB
Stream :WATCH ONLINE @ Movie4u


Young Adults 2011 720p BRRip XviD AC3-26k
Free and Fast Download with Usenet 300GB+ free







Trackers List

Tracker NameLast CheckStatusSeedersLeechers




Torrent File Content (13 files)


Young Adults 2011 720p BRRip XviD AC3-26k
     1.png -
1.17 MB

     2.png -
834.67 KB

     26k nfo.nfo -
3.59 KB

     3.png -
610.45 KB

     4.png -
927.12 KB

     att-networks.com.txt -
39 bytes

     HDSceneRG.txt -
115 bytes

     sceneunderground.org.txt -
77 bytes

     Torrent downloaded from Demonoid.me.txt -
46 bytes

     Torrent downloaded from rarbg.com.txt.txt -
0 bytes

     Young Adults 2011 720p BRRip XviD AC3-26k.avi -
2.39 GB

     Young Adults 2011 720p BRRip XviD AC3-26k.jpg -
168.26 KB

     YouTube Latest Releases And Archive.txt -
80 bytes



Description



http://img831.imageshack.us/img831/1770/youngp.jpg


[code]

Young Adults 2011 720p BRRip XviD AC3-26k

http://www.imdb.com/title/tt1625346/

Plot:
Soon after her divorce, a fiction writer returns to her home in small-town Minnesota,
looking to rekindle a romance with her ex-boyfriend, who is now happily married and
has a newborn daughter.


Sources - young.adult.2011.1080p.bluray.x264-sparks .....Thanks :P


Format : AVI
Format/Info : Audio Video Interleave
Format profile : OpenDML
File size : 2.39 GiB
Duration : 1h 33mn
Overall bit rate : 3 652 Kbps
Writing library : VirtualDub build 32839/release

Video
ID : 0
Format : MPEG-4 Visual
Format profile : Advanced [email protected]
Format settings, BVOP : 2
Format settings, QPel : No
Format settings, GMC : No warppoints
Format settings, Matrix : Default (H.263)
Codec ID : XVID
Codec ID/Hint : XviD
Duration : 1h 33mn
Bit rate : 3 000 Kbps
Width : 1 280 pixels
Height : 720 pixels
Display aspect ratio : 16:9
Frame rate : 23.976 fps
Color space : YUV
Chroma subsampling : 4:2:0
Bit depth : 8 bits
Scan type : Progressive
Compression mode : Lossy
Bits/(Pixel*Frame) : 0.136
Stream size : 1.96 GiB (82%)
Writing library : XviD 1.2.1 (UTC 2008-12-04)

Audio
ID : 1
Format : AC-3
Format/Info : Audio Coding 3
Mode extension : CM (complete main)
Codec ID : 2000
Duration : 1h 33mn
Bit rate mode : Constant
Bit rate : 640 Kbps
Channel(s) : 6 channels
Channel positions : Front: L C R, Side: L R, LFE
Sampling rate : 48.0 KHz
Bit depth : 16 bits
Compression mode : Lossy
Stream size : 429 MiB (18%)
Alignment : Split accross interleaves
Interleave, duration : 42 ms (1.00 video frame)
Interleave, preload duration : 500 ms




Notes -

Did my thing.. turned out real nice....enjoy

[/code]

Screens:
http://i.imgur.com/cqT30.jpg

http://img849.imageshack.us/img849/8646/15344147.png

http://img846.imageshack.us/img846/1942/45222355.png

http://img859.imageshack.us/img859/7800/77329393.png


Alternative screens:
http://imgdepot.org/show/20120303/2/638656_2.png
http://www.imageporter.com/6gszc6segluk/2.png
http://dippic.com/q98q9nq3guib
http://www.hotimg.com/image/GWbCe2E

Greetz:
Xtreme Encode|FYA|ILLUMANTI|CM8|RX|VISI​ON|HDSCENE|xTriLL|DTRG|CRYS|REMIX​HD|BIDA|RX|REFILL|INSPiRAL|SIC|
|HO​PE|Anonymous|GooN
To all the people who have helped me you know who you are

Anything to offer email us @: [email protected]


http://img851.imageshack.us/img851/5503/26ks.jpg

Thank you smallz for banner!

Related torrents

Torrent NameAddedSizeSeedLeechHealth
Verified torrent
1 Year+ - in Movies1.61 GB20
Verified torrent
1 Year+ - in Movies2.55 GB10
7 months ago - in Movies2.47 GB00
1 Good
Verified torrent
1 Year+ - in Movies2.27 GB00
Verified torrent
1 Year+ - in Movies2.21 GB10

Comments (0 Comments)




Please login or create a FREE account to post comments

Latest Searches

| Ice T M V P S | collegerules hotties party | Gaslight 1944 720p WEB DL H264 CtrlHD | big bang theory e10 | schoolgirl pee | brad cooper | six a m | love medo | Jack irish books | RealityKings Lacy Leveah Pure 18 2012 |