Quick Browse
Movies
TV shows
Music
Games
Applications
Anime
Other
Facebook
Advertising

Friends
Torrent Download
Movie4u
1337x.to
Torrent Downloads




Verified torrent Young Black Stallion (2003) [XviD - Italian English Ac3 5.1 - Sub Ita Eng] MIRCrew [TNT Village]


    Seeders : 9      Leechers : 32

Trackers List

Tracker NameLast CheckStatusSeedersLeechers




Torrent File Content (3 files)


Young Black Stallion (2003)
     Young Black Stallion (2003).avi -
1.27 GB

     Young Black Stallion (2003).idx -
34.02 KB

     Young Black Stallion (2003).sub -
2.61 MB



Description



Young Black Stallion (2003) [XviD - Italian English Ac3 5.1 - Sub Ita Eng] MIRCrew [TNT Village]


[color=blue]
http://img706.imageshack.us/img706/5530/mircreworiginal.gif



Young Black Stallion (2003)




[URL=http://www.imdb.com/title/tt0318850/]
http://img197.imageshack.us/img197/1332/imdblogo.gif
[/URL]


http://i752.photobucket.com/albums/xx170/robbyrs/img_175760_lrg.jpg


http://img128.imageshack.us/img128/3562/schedafilmrb.gif


Titolo: Young Black Stallion
Genere: Azione, avventura
Regia: Simon Wincer
Anno: 2003
Durata: 46 min

http://i752.photobucket.com/albums/xx170/robbyrs/vlcsnap-2012-12-19-16h07m06s211.jpg




http://i752.photobucket.com/albums/xx170/robbyrs/vlcsnap-2012-12-19-16h07m27s88.jpg


http://img845.imageshack.us/img845/7838/cast.gif


Richard Romanus, Biama Tamini, Patrick Elyas, Gerard Rudolf

http://i752.photobucket.com/albums/xx170/robbyrs/vlcsnap-2012-12-19-16h07m40s33.jpg


http://img222.imageshack.us/img222/4740/trama.gif


Quando la giovane Neera viene separata dalla sua famiglia e si ritrova sola nel deserto, stringe un forte legame di amicizia con un meraviglioso e selvaggio stallone nero, Shetan, che

l'aiuta a ritrovare la strada di casa. Qui, per riabilitare la reputazione di suo nonno, Neera escogita un piano per far partecipare Shetan all'annuale corsa di cavalli ma per riuscire nel

suo intento Neera dovrà rischiare di perdere il suo migliore amico.............

STORYLINE

A prequel to the 1979 classic The Black Stallion--a family drama that presents the horse's adventures with a young girl named Neera, who has been separated from her father in Arabia by

WWII. Left alone in the desert, she befriends the wild colt whom she names Shetan. Once reunited with her father, however, Neera remains haunted by the images of the lost horse in the

desert--one of a few stallions of legend, rumored to be born of the sands, sired by the night sky, drinkers of the wind.......



http://img245.imageshack.us/img245/3893/datifile.gif


General
Complete name : Young Black Stallion (2003).avi
Format : AVI
Format/Info : Audio Video Interleave
File size : 1.27 GiB
Duration : 48mn 29s
Overall bit rate : 3 749 Kbps
Writing application : VirtualDubMod 1.5.4.1 (build 2178/release)
Writing library : VirtualDubMod build 2178/release

Video
ID : 0
Format : MPEG-4 Visual
Format profile : Advanced [email protected]
Format settings, BVOP : No
Format settings, QPel : No
Format settings, GMC : No warppoints
Format settings, Matrix : Custom
Codec ID : XVID
Codec ID/Hint : XviD
Duration : 48mn 29s
Bit rate : 2 908 Kbps
Width : 720 pixels
Height : 416 pixels
Display aspect ratio : 16:9
Frame rate : 25.000 fps
Color space : YUV
Chroma subsampling : 4:2:0
Bit depth : 8 bits
Scan type : Progressive
Bits/(Pixel*Frame) : 0.388
Stream size : 1 008 MiB (78%)
Writing library : XviD 1.2.1 (UTC 2008-12-04)

Audio #1
ID : 1
Format : AC-3
Format/Info : Audio Coding 3
Mode extension : CM (complete main)
Codec ID : 2000
Duration : 48mn 29s
Bit rate mode : Constant
Bit rate : 384 Kbps
Channel(s) : 6 channels
Channel positions : Front: L C R, Side: L R, LFE
Sampling rate : 48.0 KHz
Bit depth : 16 bits
Stream size : 133 MiB (10%)
Alignment : Aligned on interleaves
Interleave, duration : 96 ms (2.40 video frames)
Interleave, preload duration : 96 ms
Language : Italian

Audio #2
ID : 2
Format : AC-3
Format/Info : Audio Coding 3
Mode extension : CM (complete main)
Codec ID : 2000
Duration : 48mn 29s
Bit rate mode : Constant
Bit rate : 448 Kbps
Channel(s) : 6 channels
Channel positions : Front: L C R, Side: L R, LFE
Sampling rate : 48.0 KHz
Bit depth : 16 bits
Stream size : 155 MiB (12%)
Alignment : Aligned on interleaves
Interleave, duration : 96 ms (2.40 video frames)
Interleave, preload duration : 96 ms
Language : English

http://i1203.photobucket.com/albums/bb395/toller58/banner/robbyrs/rimanete-in-seed.gif



[/color]



Related torrents

Torrent NameAddedSizeSeedLeechHealth
Verified torrent
1 Year+ - in Movies2.03 GB7812
Verified torrent
1 Year+ - in Movies1.52 GB154
Verified torrent
1 Year+ - in Movies1.86 GB00
Verified torrent
1 Year+ - in Movies1.85 GB435
Verified torrent
1 Year+ - in Movies1.67 GB171

Comments (0 Comments)




Please login or create a FREE account to post comments

Latest Searches

| warship series | alone with toys | BATMAN V SUPERMAN DAWN OF JUSTICE ita avi | evilangel valentina nappi straight up scene 1 mp4 | The History Thieves Secrets Lies and the Shaping of a Modern Nation by Ian Cobain | stunning squirting for daddy | Need for Speed Hot Pursuit 1 0 0 | beware Big Sean ft Lil Wayne | jeziorak 2014 rar | german view |