Quick Browse
Movies
TV shows
Music
Games
Applications
Anime
Other
Facebook
Advertising

Friends
Torrent Download
Movie4u
1337x.to
Torrent Downloads




Youngbloodz - Presidential {XVID} [Solly4Life]


    Seeders : 0      Leechers : 0
Hash :069646318F4970CD23F5D8F4FE2C313239333573
Added :1 Year+ in Music - Music
Size :85.01 MB
Stream :WATCH ONLINE @ Movie4u


Youngbloodz - Presidential {XVID} [Solly4Life]
Free and Fast Download with Usenet 300GB+ free







Trackers List

Tracker NameLast CheckStatusSeedersLeechers




Torrent File Content (1 file)


     Youngbloodz - Presidential {XVID} [Solly4Life].rar -
85.01 MB



Description



General
Complete name : Youngbloodz - Presidential {XVID} [Solly4Life].avi
Format : AVI
Format/Info : Audio Video Interleave
File size : 85.8 MiB
Duration : 4mn 52s
Overall bit rate : 2 459 Kbps
Writing library : Boilsoft Joiner build 2411/release

Video
Format : MPEG-4 Visual
Format profile : Streaming [email protected]
Format settings, BVOP : Yes
Format settings, QPel : No
Format settings, GMC : No warppoints
Format settings, Matrix : Default (H.263)
Muxing mode : Packed bitstream
Codec ID : XVID
Codec ID/Hint : XviD
Duration : 4mn 52s
Bit rate : 2 257 Kbps
Width : 640 pixels
Height : 480 pixels
Display aspect ratio : 4/3
Frame rate : 25.000 fps
Resolution : 24 bits
Colorimetry : 4:2:0
Scan type : Interlaced
Scan order : Bottom Field First
Bits/(Pixel*Frame) : 0.294
Stream size : 78.8 MiB (92%)
Writing library : XviD 1.1.2 (UTC 2006-11-01)

Audio
Format : MPEG Audio
Format version : Version 1
Format profile : Layer 3
Codec ID : 55
Codec ID/Hint : MP3
Duration : 4mn 52s
Bit rate mode : Constant
Bit rate : 192 Kbps
Channel(s) : 2 channels
Sampling rate : 48.0 KHz
Resolution : 16 bits
Stream size : 6.70 MiB (8%)
Alignment : Split accross interleaves
Interleave, duration : 40 ms (1.00 video frame)
Interleave, preload duration : 500 ms
Writing library : LAME3.97


Related torrents

Torrent NameAddedSizeSeedLeechHealth
1 Year+ - in Other34.89 MB10
1 Year+ - in Music105.17 MB15
1 Year+ - in Music58.65 MB10
1 Year+ - in Music10.16 MB22
1 Year+ - in Music63.25 MB86

Comments (0 Comments)




Please login or create a FREE account to post comments

Latest Searches

| icky sticky | fox teens | Dennis Lehane Shutter Island | running man 101 120 | country top billboard hits | teacher fight | move raja | The Love Guru 2008 Multi 1080p Bluray X264 lesbleus | Chayenne laat zich | Moka Mora Toys |