Quick Browse
Movies
TV shows
Music
Games
Applications
Anime
Other
Facebook
Advertising

Friends
Torrent Download
Movie4u
1337x.to
Torrent Downloads




Verified torrent Zeca Baleiro - Lado Z[Eac Flac Cue](TntVillage)


    Seeders : 4      Leechers : 15
Hash :2DE043D7CF92EF2510EA1E5E5CB0619F87AD4DC3
Added :1 Year+ by leoneneroVerified torrent uploader in Music - Music
Size :375.63 MB
Stream :WATCH ONLINE @ Movie4u


Zeca Baleiro - Lado Z[Eac Flac Cue](TntVillage)
Free and Fast Download with Usenet 300GB+ free







Trackers List

Tracker NameLast CheckStatusSeedersLeechers




Torrent File Content (20 files)


Zeca Baleiro - Lado Z
     00._%Zeca.Baleiro%_-_%Lado.Z%.nfo -
2.36 KB

     01 - Eu, Você e a Praça.flac -
25.96 MB

     02 - Tristeza Pé no Chão.flac -
23.64 MB

     03 - Uma Delicada Forma de Calor.flac -
25.56 MB

     04 - Na Subida do Morro.flac -
17.15 MB

     05 - Das Dores de Oratório.flac -
25.96 MB

     06 - Salve a Mulatada Brasileira.flac -
33.57 MB

     07 - Não Tenho Tempo.flac -
21.79 MB

     08 - Menina Jesus.flac -
24.54 MB

     09 - De Teresina a São Luís.flac -
35.44 MB

     10 - Meu Coração Está de Luto.flac -
19.43 MB

     11 - Roda Morta.flac -
26.85 MB

     12 - Onde Anda Iolanda.flac -
14.85 MB

     13 - Radiografia.flac -
21.37 MB

     14 - Forró no Malagueta.flac -
28.25 MB

     15 - Coro das Velhas.flac -
31.15 MB

     Folder.jpg -
103.65 KB

     Lado Z.cue -
2.58 KB

     Zeca Baleiro - Lado Z.log -
15.27 KB

     Zeca Baleiro - Lado Z.m3u -
454 bytes



Description



http://img198.imageshack.us/img198/2434/progettocover.jpg


http://img221.imageshack.us/img221/1816/214564804.jpg


http://img838.imageshack.us/img838/3124/214564801.jpg


http://img684.imageshack.us/img684/5214/dsc00706.gif


Title: Zeca Baleiro - Lado Z
Label: Microservice
Format: cd
Country: Brazil
Released: 2007
Genre: Mpb
Source: CD
Playing Time: 01.00.24
Total Size: 375,51 MB


http://img98.imageshack.us/img98/9113/progettotracklist.jpg


1.Eu, Você e a Praça [04.08]
2.Tristeza Pé no Chão [03.25]
3.Uma Delicada Forma de Calor [04.05] con Lobão
4.Na Subida do Morro [02.39] con Jards Macalé
5.Das Dores de Oratório [04.33]
6.Salve a Mulatada Brasileira [04.35] con Martinho Da Vila
7.Não Tenho Tempo [03.48] con Raimunfo Fagner
8.Menina Jesus [04.06]
9.De Teresina a São Luís [05.17] con Tião Carvalho
10.Meu Coração Está de Luto [04.26]
11.Roda Morta [04.23]
12.Onde Anda Iolanda [02.38] con Ronaldo Boldrin
13.Radiografia [03.36] con Vanessa Bumagny
14.Forró no Malagueta [04.04] con Forrõcacana
15.Coro das Velhas [04.35] con Sergio Godinho

http://img210.imageshack.us/img210/734/progettorecensione.jpg

Zeca Baleiro, mostra un nuovo "lato" del suo estro musicale. "Lado Z", disco pubblicato da Mza Music, in distribuzione da giugno 2007, è una compilation che riunisce brani registrati dall'artista del Maranhão per album di famosi colleghi come Fagner, Martinho da Vila, Jards Macalé, Rolando Boldrin, Forróçacana e Lobão. Il cd comprende anche tracce originalmente incluse in due tributi, a Clara Nunes e a Odair José. La coletânea è prodotta da Marco Mazzola, direttore di Mza.

http://img713.imageshack.us/img713/7143/progettodatitecnici.jpg

Exact Audio Copy V1.0 beta 3 from 29. August 2011

EAC extraction logfile from 7. January 2012, 16:52

Zeca Baleiro / Lado Z

Used drive : HL-DT-STDVDRAM GSA-T40N Adapter: 0 ID: 0

Read mode : Secure
Utilize accurate stream : Yes
Defeat audio cache : Yes
Make use of C2 pointers : No

Read offset correction : 667
Overread into Lead-In and Lead-Out : No
Fill up missing offset samples with silence : Yes
Delete leading and trailing silent blocks : No
Null samples used in CRC calculations : Yes
Used interface : Native Win32 interface for Win NT & 2000
Gap handling : Appended to previous track

Used output format : User Defined Encoder
Selected bitrate : 896 kBit/s
Quality : High
Add ID3 tag : No
Command line compressor : C:\Program Files\Exact Audio Copy\FLAC\FLAC.EXE
Additional command line options : -8 -V -T "ARTIST=%Zeca.Baleiro%" -T "TITLE=%Lado.Z%" -T "ALBUM=%Lado.Z%" -T "DATE=%2007%" -T "TRACKNUMBER=%15%" -T "GENRE=%Mpb%" -T "COMMENT=%comment%" -T "COMPOSER=%Zeca.Baleiro%" %haslyrics%--tag-from-file=LYRICS="%lyricsfile%"%haslyrics% -T "DISCNUMBER=%cd1%" -T "TOTALDISCS=%1%" -T "TOTALTRACKS=%15%" %hascover%--picture="%coverfile%"%hascover% %source% -o %dest%


TOC of the extracted CD

Track | Start | Length | Start sector | End sector
---------------------------------------------------------
1 | 0:00.00 | 4:08.33 | 0 | 18632
2 | 4:08.33 | 3:25.34 | 18633 | 34041
3 | 7:33.67 | 4:05.63 | 34042 | 52479
4 | 11:39.55 | 2:39.06 | 52480 | 64410
5 | 14:18.61 | 4:33.04 | 64411 | 84889
6 | 18:51.65 | 4:35.23 | 84890 | 105537
7 | 23:27.13 | 3:48.54 | 105538 | 122691
8 | 27:15.67 | 4:06.06 | 122692 | 141147
9 | 31:21.73 | 5:17.03 | 141148 | 164925
10 | 36:39.01 | 4:26.54 | 164926 | 184929
11 | 41:05.55 | 4:23.36 | 184930 | 204690
12 | 45:29.16 | 2:38.23 | 204691 | 216563
13 | 48:07.39 | 3:36.39 | 216564 | 232802
14 | 51:44.03 | 4:04.48 | 232803 | 251150
15 | 55:48.51 | 4:35.43 | 251151 | 271818


Track 1

Filename F:\Nuova cartella\Zeca Baleiro - Lado Z\01 - Eu, Você e a Praça.Flac

Pre-gap length 0:00:02.00

Peak level 88.9 %
Extraction speed 2.2 X
Track quality 100.0 %
Test CRC FB435898
Copy CRC FB435898
Accurately ripped (confidence 1) [F47CEA4B] (AR v1)
Copy OK

Track 2

Filename F:\Nuova cartella\Zeca Baleiro - Lado Z\02 - Tristeza Pé no Chão.Flac

Pre-gap length 0:00:02.00

Peak level 99.3 %
Extraction speed 2.3 X
Track quality 100.0 %
Test CRC 73E3B99E
Copy CRC 73E3B99E
Accurately ripped (confidence 1) [F2CFEB5A] (AR v1)
Copy OK

Track 3

Filename F:\Nuova cartella\Zeca Baleiro - Lado Z\03 - Uma Delicada Forma de Calor.Flac

Pre-gap length 0:00:02.00

Peak level 88.0 %
Extraction speed 2.6 X
Track quality 100.0 %
Test CRC AB0FA428
Copy CRC AB0FA428
Accurately ripped (confidence 1) [E8BE0516] (AR v1)
Copy OK

Track 4

Filename F:\Nuova cartella\Zeca Baleiro - Lado Z\04 - Na Subida do Morro.Flac

Pre-gap length 0:00:02.00

Peak level 96.9 %
Extraction speed 2.6 X
Track quality 100.0 %
Test CRC D4CC474B
Copy CRC D4CC474B
Accurately ripped (confidence 1) [1F987904] (AR v1)
Copy OK

Track 5

Filename F:\Nuova cartella\Zeca Baleiro - Lado Z\05 - Das Dores de Oratório.Flac

Pre-gap length 0:00:02.00

Peak level 100.0 %
Extraction speed 3.0 X
Track quality 100.0 %
Test CRC B8CD59B4
Copy CRC B8CD59B4
Accurately ripped (confidence 1) [6BF4B114] (AR v1)
Copy OK

Track 6

Filename F:\Nuova cartella\Zeca Baleiro - Lado Z\06 - Salve a Mulatada Brasileira.Flac

Pre-gap length 0:00:02.00

Peak level 100.0 %
Extraction speed 3.1 X
Track quality 100.0 %
Test CRC C8C8CFAE
Copy CRC C8C8CFAE
Accurately ripped (confidence 1) [8295C83E] (AR v1)
Copy OK

Track 7

Filename F:\Nuova cartella\Zeca Baleiro - Lado Z\07 - Não Tenho Tempo.Flac

Pre-gap length 0:00:02.00

Peak level 100.0 %
Extraction speed 2.7 X
Track quality 99.9 %
Test CRC F64277E9
Copy CRC F64277E9
Accurately ripped (confidence 1) [95927DDC] (AR v1)
Copy OK

Track 8

Filename F:\Nuova cartella\Zeca Baleiro - Lado Z\08 - Menina Jesus.Flac

Pre-gap length 0:00:02.00

Peak level 88.9 %
Extraction speed 3.4 X
Track quality 100.0 %
Test CRC FC7D0630
Copy CRC FC7D0630
Accurately ripped (confidence 1) [5C61E629] (AR v1)
Copy OK

Track 9

Filename F:\Nuova cartella\Zeca Baleiro - Lado Z\09 - De Teresina a São Luís.Flac

Pre-gap length 0:00:02.00

Peak level 95.3 %
Extraction speed 2.8 X
Track quality 99.9 %
Test CRC 2DABC891
Copy CRC 2DABC891
Accurately ripped (confidence 1) [7E609B81] (AR v1)
Copy OK

Track 10

Filename F:\Nuova cartella\Zeca Baleiro - Lado Z\10 - Meu Coração Está de Luto.Flac

Pre-gap length 0:00:02.00

Peak level 98.0 %
Extraction speed 3.5 X
Track quality 100.0 %
Test CRC B6D744FF
Copy CRC B6D744FF
Accurately ripped (confidence 1) [EED73DFD] (AR v1)
Copy OK

Track 11

Filename F:\Nuova cartella\Zeca Baleiro - Lado Z\11 - Roda Morta.Flac

Pre-gap length 0:00:02.00

Peak level 97.7 %
Extraction speed 2.5 X
Track quality 100.0 %
Test CRC F3FB5EB7
Copy CRC F3FB5EB7
Accurately ripped (confidence 1) [5E2DBF0B] (AR v1)
Copy OK

Track 12

Filename F:\Nuova cartella\Zeca Baleiro - Lado Z\12 - Onde Anda Iolanda.Flac

Pre-gap length 0:00:02.00

Peak level 98.9 %
Extraction speed 2.2 X
Track quality 100.0 %
Test CRC 23BBB8DF
Copy CRC 23BBB8DF
Accurately ripped (confidence 1) [055B77F0] (AR v1)
Copy OK

Track 13

Filename F:\Nuova cartella\Zeca Baleiro - Lado Z\13 - Radiografia.Flac

Pre-gap length 0:00:02.00

Peak level 62.2 %
Extraction speed 3.5 X
Track quality 100.0 %
Test CRC FB9236E8
Copy CRC FB9236E8
Accurately ripped (confidence 1) [9AEA4698] (AR v1)
Copy OK

Track 14

Filename F:\Nuova cartella\Zeca Baleiro - Lado Z\14 - Forró no Malagueta.Flac

Pre-gap length 0:00:02.00

Peak level 99.9 %
Extraction speed 3.5 X
Track quality 100.0 %
Test CRC B24017E8
Copy CRC B24017E8
Accurately ripped (confidence 1) [4A932E54] (AR v1)
Copy OK

Track 15

Filename F:\Nuova cartella\Zeca Baleiro - Lado Z\15 - Coro das Velhas.Flac

Pre-gap length 0:00:02.00

Peak level 78.4 %
Extraction speed 3.4 X
Track quality 99.9 %
Test CRC D262CD16
Copy CRC D262CD16
Accurately ripped (confidence 1) [6DD79348] (AR v1)
Copy OK


All tracks accurately ripped

No errors occurred

End of status report

==== Log checksum 41829D184D84B46900207CFC1B82CB75FF8F27A3AA12E0010A82542F5305632F ====
Per i primi 10: 24 su 24:80/90 Kb/s

Related torrents

Torrent NameAddedSizeSeedLeechHealth
Verified torrent
1 Year+ - in Music389.13 MB713
Verified torrent
1 Year+ - in Music414.64 MB32
Verified torrent
1 Year+ - in Music367.87 MB118
Verified torrent
1 Year+ - in Music265.29 MB39
Verified torrent
1 Year+ - in Music266.11 MB10

Comments (0 Comments)




Please login or create a FREE account to post comments

Latest Searches

| you re next trailer | Go | Phillip Phillips gone gone | yasin b | Colton f | met art Violla A imageset | Agnostic Front liberty | iobit Driver Booster 4 1 Multilingual Keygen | NAVIDAD FELIZ NAVIDAD | Hardcore ass bang for a beautiful teen is what she need |