Quick Browse
Movies
TV shows
Music
Games
Applications
Anime
Other
Facebook
Advertising

Friends
Torrent Download
Movie4u
1337x.to
Torrent Downloads




Verified torrent Zombieland 2009 NTSC Retail DVD5-*THC*


    Seeders : 1      Leechers : 0
Hash :A0788486A796DB944728D934B7112A42882EE8C0
Added :1 Year+ by striker123Verified torrent uploader in Movies
Size :4.31 GB
Stream :WATCH ONLINE @ Movie4u


Zombieland 2009 NTSC Retail DVD5-*THC*
Free and Fast Download with Usenet 300GB+ free







Trackers List

Tracker NameLast CheckStatusSeedersLeechers




Torrent File Content (1 file)


     ZOMBIELAND.ISO -
4.31 GB



Description



http://i126.photobucket.com/albums/p102/tebugg/zombieland-poster.jpg


http://i126.photobucket.com/albums/p102/tebugg/info.png


[CODE]
General
Complete name : D:\ZOMBIELAND\VIDEO_TS\VTS_01_1.VOB
Format : MPEG-PS
File size : 1 024 MiB
Duration : 40mn 11s
Overall bit rate : 3 562 Kbps
Writing library : |HCenc 0.23.0.0 - (c) 2004/2008|

Video
ID : 224 (0xE0)
Format : MPEG Video
Format version : Version 2
Format profile : [email protected]
Format settings, BVOP : Yes
Format settings, Matrix : Default
Duration : 40mn 11s
Bit rate mode : Variable
Bit rate : 1 956 Kbps
Nominal bit rate : 7 266 Kbps
Width : 720 pixels
Height : 480 pixels
Display aspect ratio : 16:9
Frame rate : 23.976 fps
Standard : NTSC
Color space : YUV
Chroma subsampling : 4:2:0
Bit depth : 8 bits
Scan type : Progressive
Scan order : 2:3 Pulldown
Bits/(Pixel*Frame) : 0.236
Stream size : 562 MiB (55%)
Writing library : |HCenc 0.23.0.0 - (c) 2004/2008|

Audio #1
ID : 128 (0x80)
Format : AC-3
Format/Info : Audio Coding 3
Mode extension : CM (complete main)
Duration : 40mn 11s
Bit rate mode : Constant
Bit rate : 448 Kbps
Channel(s) : 6 channels
Channel positions : Front: L C R, Side: L R, LFE
Sampling rate : 48.0 KHz
Bit depth : 16 bits
Stream size : 129 MiB (13%)

Actors: Jesse Eisenberg, Emma Stone, Woody Harrelson, Abigail Breslin, Amber Heard
Directors: Ruben Fleischer
Writers: Paul Wernick, Rhett Reese
Producers: Ezra Swerdlow, Gavin Polone, Paul Wernick, Rhett Reese, Ryan Kavanaugh
Format: AC-3, Color, Dolby, Dubbed, DVD, Subtitled, Widescreen, NTSC
Language: English
Subtitles: English, French
Region: Region 1 encoding (US and Canada only)
Rated: R (Restricted)
Studio: Sony Pictures
DVD Release Date: February 2, 2010
Run Time: 88 minutes
[/CODE]

http://i126.photobucket.com/albums/p102/tebugg/plot.png


Searching for family. In the early twenty-first century, zombies have taken over America. A shy and inexperienced college student in Texas has survived by following his 30 rules: such as "look in the back seat," "shoot twice," "avoid public restrooms." He decides to travel to Ohio to see if his parents are alive. He gets a ride with a boisterous zombie-hating good-old boy headed for Florida, and soon they confront a young woman whose sister has been bitten by a zombie and wants to be put out of her misery. The sisters were headed to an LA amusement park they've heard is zombie free. Can the kid from Ohio get to his family? And what about rule thirty one?


http://i126.photobucket.com/albums/p102/tebugg/screens-1.png


http://i126.photobucket.com/albums/p102/tebugg/vlcsnap-2010-10-16-12h18m00s173.png

http://i126.photobucket.com/albums/p102/tebugg/vlcsnap-2010-10-16-12h18m04s202.png

http://i126.photobucket.com/albums/p102/tebugg/vlcsnap-2010-10-16-12h18m09s251.png

http://i126.photobucket.com/albums/p102/tebugg/vlcsnap-2010-10-16-12h18m16s58.png

http://i126.photobucket.com/albums/p102/tebugg/vlcsnap-2010-10-16-12h19m09s93.png

http://i126.photobucket.com/albums/p102/tebugg/vlcsnap-2010-10-16-12h19m16s156.png

http://i126.photobucket.com/albums/p102/tebugg/vlcsnap-2010-10-16-12h19m22s210.png

http://i126.photobucket.com/albums/p102/tebugg/vlcsnap-2010-10-16-12h19m38s122.png


http://i126.photobucket.com/albums/p102/tebugg/torrent%20Links/thcgroup.png



http://i126.photobucket.com/albums/p102/tebugg/happyhalloweenp.jpg

Related torrents

Torrent NameAddedSizeSeedLeechHealth
1 Year+ - in Movies4.37 GB5464
1 Year+ - in Movies4.34 GB00
1 Year+ - in Movies4.27 GB2722
1 Year+ - in Movies4.1 GB00
1 Year+ - in Movies4.36 GB210

Comments (0 Comments)




Please login or create a FREE account to post comments

Latest Searches

| snow tha product nights | smart driver 5 | MyDirtyHobby Bibixxx Tief Gefickt In Alle Locher | native instruments RISING CRESCENT | Rad Rodgers World One GOG | Daz Dillinger mp3 | kristina luna | Young Pope S01E01 | Adguard v6 1 296 | Booty Me Kstylis |