Quick Browse
Movies
TV shows
Music
Games
Applications
Anime
Other
Facebook
Advertising

Friends
Torrent Download
Movie4u
1337x.to
Torrent Downloads




Zorba The Greek - 1964 - DVDRip - BW - Greek Subtitles srt


    Seeders : 0      Leechers : 0
Hash :0E378B13D030B4B9F8E1B531080D122C4449273E
Added :1 Year+ in Movies
Size :699.1 MB
Stream :WATCH ONLINE @ Movie4u


Zorba The Greek - 1964 - DVDRip - BW - Greek Subtitles srt
Free and Fast Download with Usenet 300GB+ free







Trackers List

Tracker NameLast CheckStatusSeedersLeechers




Torrent File Content (8 files)


Zorba The Greek - 1964 - BW - www.greekadiko.biz
     Zorba The Greek.1964.avi -
698.72 MB

     poster.png -
289.25 KB

     Zorba The Greek.1964.sub -
36.15 KB

     Zorba The Greek.1964_4.jpg -
19.46 KB

     Zorba The Greek.1964.jpg -
14.77 KB

     Zorba The Greek.1964_3.jpg -
11.74 KB

     Zorba The Greek.1964_1.jpg -
10.61 KB

     Zorba The Greek.1964_2.jpg -
9.21 KB



Description



http://i50.tinypic.com/novw47.jpg



Director: Mihalis Kakogiannis
Writers: Nikos Kazantzakis (novel) - Mihalis Kakogiannis (screenplay)
Release Date: 17 December 1964 (USA)
Genre: Adventure | Drama
Runtime: 142 min
Language: English Greek
Subtitles: Greek / Ελληνικά
Color: Black and White
Filming Locations: Crete (Greece)

[color=red]Awards: Won 3 Oscars. Another 2 wins & 16 nomination[/color]



Cast:

[color=blue]Anthony Quinn ... Alexis Zorba[/color]
Alan Bates ... Basil
Irene Papas ... Widow

Lila Kedrova ... Madame Hortense
Sotiris Moustakas ... Mimithos
Anna Kyriakou ... Soul
Eleni Anousaki ... Lola
Yorgo Voyagis ... Pavlo (as George Voyadjis)
Takis Emmanuel ... Manolakas
Giorgos Foundas ... Mavrandoni (as George Foundas)




Plot:

An aimless Englishman finds he has a small inheritance on a Greek island. His joyless existence is disturbed when he meets Zorba, a middle aged Greek with a real lust for life. As he discovers the earthy pleasures of Greece, the Englishman finds his view on life changing.


User Review:

Nikos Kazantzakis' novels lend themselves to cinematic treatment. Jules Dassin made a great adaptation of "He Who Must Die", and Michael Cacoyannis was equally successful in bringing "Alexis Zorbas" to the screen. Watching this film for a second time puts into perspective a lot of things that escape many a viewer the first time around.

Michael Cacoyannis changed the order of events in the book, as well as Nikos, who he transforms into Basil, the Englishman. The changes are not without merit since all the elements contribute to blend well together in the finished product. The director was fortunate to find such collaborators as Mikis Theodorakis, the genial composer of the music score and Walter Lassally, who photographed the barren area where most of the action takes place. Viewing the film on cable recently, shows Lassally's crisp black and white photography in mint condition.

The film is totally dominated by Zorba, who is a figure larger than life, as he takes Basil under his wing from the start. Anthony Quinn was a perfect choice for playing the title character. Mr. Quinn had worked with other brilliant directors, Federico Fellini, being one of them. It's almost impossible to think of Mr. Quinn as being an American because the magnificent transformation he undergoes here to portray Zorba.

Alan Bates, who is seen as Basil, the Englishman of Greek descent, who is going to Crete to see the family's land and mine. By underplaying Basil, Mr. Bates set the right tone, in sharp contrast with Anthony Quinn's exuberance. Alan Bates, in the end, made perfect sense with the way he played Basil.

Lila Kedrova is another surprise in the film. She is the tragic Madame Hortense, who has lived in the island for quite a while. It's ironic that love always eluded her until she finds in Zorba a reason for keep on living. Irene Papas is equally intense as the widow who is haunted by all the men in town. She has little to say, but just a look from her smolders the screen, be it, for the lust she felt for Basil, or the hatred for the town male population.

Michael Cacoyannis uses these men, as a sort of Greek Chorus, so important in Greek tragedies. The same could be said of the older women of the town who resent the arrivals of strangers. The Greek cast one sees is quite effective in the context of the movie.

"Alexis Zorbas", or "Zorba, the Greek", is a film that will stay with the viewer for quite a while because of what the director accomplished with it.



Movie Details:

General
Complete name : Zorba The Greek.1964.avi
Format : AVI
Format/Info : Audio Video Interleave
File size : 699 MiB
Duration : 2h 16mn
Overall bit rate : 718 Kbps
Writing library : VirtualDub build 0/release

Video
ID : 0
Format : MPEG-4 Visual
Format profile : [email protected]
Format settings, BVOP : No
Format settings, QPel : No
Format settings, GMC : No warppoints
Format settings, Matrix : Default (H.263)
Codec ID : XVID
Codec ID/Hint : XviD
Duration : 2h 16mn
Bit rate : 642 Kbps
Width : 448 pixels
Height : 336 pixels
Display aspect ratio : 4/3
Frame rate : 25.000 fps
Resolution : 24 bits
Colorimetry : 4:2:0
Scan type : Progressive
Bits/(Pixel*Frame) : 0.171
Stream size : 624 MiB (89%)
Writing library : XviD 0.0.09 (UTC 2003-03-25)

Audio
ID : 1
Format : MPEG Audio
Format version : Version 1
Format profile : Layer 3
Codec ID : 55
Codec ID/Hint : MP3
Duration : 2h 16mn
Bit rate mode : Constant
Bit rate : 64.0 Kbps
Channel(s) : 1 channel
Sampling rate : 44.1 KHz
Resolution : 16 bits
Stream size : 62.3 MiB (9%)
Alignment : Aligned on interleaves
Interleave, duration : 26 ms (0.65 video frame)
Interleave, preload duration : 496 ms
Writing library : LAME3.92
Encoding settings : -m m -V 4 -q 2 -lowpass 13.7 -b 64



Screenshots:

http://i46.tinypic.com/hvdjrl.jpg


http://i48.tinypic.com/20u4vh4.jpg


http://i50.tinypic.com/331epow.jpg


http://i46.tinypic.com/2eg43nd.jpg




Uploader Notes:
Download, seed and enjoy the Gold Movie we all know and never forget!

Related torrents

Torrent NameAddedSizeSeedLeechHealth
4 months ago - in Other2.71 GB00
4 months ago - in Other1.72 GB00
4 months ago - in Movies1.79 GB00
Verified torrent
1 Year+ - in Movies7.96 GB1966
1 Year+ - in Movies1.22 GB00

Comments (0 Comments)




Please login or create a FREE account to post comments

Latest Searches

| Mom Amanda | milk | Alaska 2012 | THE HANDMAIDEN web | mission impossible 3 2006 in hindi | redhead fuck | twerk it 2016 | megan sage the largest | megan sage babysitter | MyFirstSexTeacher 14 07 14 India Summer |