Quick Browse
Movies
TV shows
Music
Games
Applications
Anime
Other
Facebook
Advertising

Friends
Torrent Download
Movie4u
1337x.to
Torrent Downloads




Verified torrent deeDeewaar ( 1975 ) Hindi DvD - 2CD - Rip - by - Punjabi_Boy


    Seeders : 2      Leechers : 19

Trackers List

Tracker NameLast CheckStatusSeedersLeechers




Torrent File Content (1 file)


Deewaar ( 1975 ) DvD - 2CD - Rip - by - Punjabi_Boy
     Deewaar ( 1975 ) DvD - 2CD - Rip - by - Punjabi_Boy.avi -
1.37 GB



Description



[color=red][font=Georgia]General
Ripper : Rahul
Complete name : Deewaar ( 1975 )
Format : AVI
Format/Info : Audio Video Interleave
File size : 1.37 GiB
Duration : 2h 45mn
Overall bit rate : 1 182 Kbps
Writing application : VirtualDubMod 1.5.4.1 (build 2178/release)
Writing library : VirtualDubMod build 2178/release

Video
ID : 0
Format : MPEG-4 Visual
Format profile : Advanced [email protected]
Format settings, BVOP : Yes
Format settings, QPel : No
Format settings, GMC : No warppoints
Format settings, Matrix : Custom
Codec ID : XVID
Codec ID/Hint : XviD
Duration : 2h 45mn
Bit rate : 982 Kbps
Width : 512 pixels
Height : 384 pixels
Display aspect ratio : 4:3
Frame rate : 29.970 fps
Color space : YUV
Chroma subsampling : 4:2:0
Bit depth : 8 bits
Scan type : Progressive
Bits/(Pixel*Frame) : 0.167
Stream size : 1.14 GiB (83%)
Writing library : XviD 1.2.1 (UTC 2008-12-04)

Audio
ID : 1
Format : AC-3
Format/Info : Audio Coding 3
Mode extension : CM (complete main)
Codec ID : 2000
Duration : 2h 45mn
Bit rate mode : Constant
Bit rate : 192 Kbps
Channel(s) : 2 channels
Channel positions : Front: L R
Sampling rate : 48.0 KHz
Bit depth : 16 bits
Video delay : 31ms
Stream size : 227 MiB (16%)
Alignment : Split accross interleaves
[/font][/color]

http://img20.imageshack.us/img20/3540/deewaar1975dvd2cdripbyp.jpg

Related torrents

Torrent NameAddedSizeSeedLeechHealth
Verified torrent
1 Year+ - in Movies1.37 GB00
Verified torrent
1 Year+ - in Movies1.26 GB38
Verified torrent
1 Year+ - in Movies1.37 GB00
Verified torrent
1 Year+ - in Movies1.42 GB02
1 Year+ - in Movies1.36 GB25

Comments (0 Comments)




Please login or create a FREE account to post comments

Latest Searches

| Advanced System Care Pro 9 2 0 1110 Serial | notorious big Im | songs of lennon | low life ft the weeknd | ultimate converter 8 5 key | antiques road trip s03e11 | AfterDeath spooks | pop hits of the 90s | love mehate me | Madaari 2016 Hindi 720p BluRay 1 2GB ShAaNiG |