Quick Browse
Movies
TV shows
Music
Games
Applications
Anime
Other
Facebook
Friends
Torrent Download
Movie4u
1337x.to
Torrent Downloads

Verified torrent omething Borrowed TS XViD - IMAGiNE


    Seeders : 1      Leechers : 2
Hash :40215AD855251B724A7B27BD1DC65E84E195C35F
Added :1 Year+ by memory100Verified torrent uploader in Movies
Size :1.38 GB
Stream :WATCH ONLINE @ Movie4u


omething Borrowed TS XViD - IMAGiNE
Free and Direct Download 300GB+ free







Trackers List

Tracker NameLast CheckStatusSeedersLeechers




Torrent File Content (8 files)


Something Borrowed TS XViD - IMAGiNE
     Budget seedboxs.txt -
44 bytes

     NW RG.nfo -
12.96 KB

     Somethiing Borrowed TS XViD - IMAGiNE.SAMPLE.avi -
8.88 MB

     Somethiing Borrowed TS XViD - IMAGiNE.avi -
1.37 GB

     Something Borrowed TS XViD - IMAGiNE.NFO -
4.83 KB

     Torrent downloaded from Demonoid.me.txt -
46 bytes

     dreamthe.net.txt -
91 bytes

     northernwarriors.net.txt -
135 bytes



Description



http://img28.imageshack.us/img28/9531/somehwwre.jpg

[code]
Something Borrowed TS XViD - IMAGiNE

Ripper ...........: IMAGiNE IMDB Rating.......: 5.5/10
Video Codec.......: XVID Release Date......: 12/05/11
Audio Codec.......: MP3 Theatre Date......: 06/05/11
Audio Bitrate.....: 128 Runtime...........: 1h 47mn
Subtitles.........: NIL Language..........: ENGLISH
Resolution........: 720 x 384 IMDb URL..........: http://www.imdb.com/title/tt0491152/

DETAILS:

Video
ID : 0
Format : MPEG-4 Visual
Format profile : Advanced [email protected]
Format settings, BVOP : Yes
Format settings, QPel : No
Format settings, GMC : No warppoints
Format settings, Matrix : Default (MPEG)
Muxing mode : Packed bitstream
Codec ID : XVID
Codec ID/Hint : XviD
Duration : 1h 47mn
Bit rate : 1 685 Kbps
Width : 720 pixels
Height : 384 pixels
Display aspect ratio : 1.875
Frame rate : 25.000 fps
Color space : YUV
Chroma subsampling : 4:2:0
Bit depth : 8 bits
Scan type : Progressive
Bits/(Pixel*Frame) : 0.244
Stream size : 1.27 GiB (92%)
Writing library : XviD 61

Audio
ID : 1
Format : MPEG Audio
Format version : Version 1
Format profile : Layer 3
Codec ID : 55
Codec ID/Hint : MP3
Duration : 1h 47mn
Bit rate mode : Constant
Bit rate : 128 Kbps
Channel(s) : 1 channel
Sampling rate : 44.1 KHz
Video delay : 20ms
Stream size : 98.7 MiB (7%)
Alignment : Split accross interleaves
Interleave, duration : 40 ms (1.00 video frame)
Interleave, preload duration : 500 ms
Writing library : LAME3.98km��lŽL�ój

Plot:
Friendships are tested and secrets come to the surface when terminally single Rachel falls for Dex, her best friend Darcy's fiancé.

SOURCES:
VIDEO: russians.... Thanks matey
AUDIO: Thanks matey ....

NOTES:
IMAGiNE bringing you another release.......... Something Borrowed

This time we have to thanks Lu for sycing the audio big thanks again great work......

Now the video was just ok but was interlaced and has an scolling flicker to it.......

So we cropped,rotated and resized also adjusted the brightness,rgb, and all of that The audio we muxed to our encode......

Enjoy folks!
[/code]
Screens:
http://img41.imageshack.us/img41/8383/30845456.jpg

http://img3.imageshack.us/img3/5424/47746693.jpg

http://img268.imageshack.us/img268/4236/72948428.jpg

http://img199.imageshack.us/img199/4594/38926378.jpg

http://img859.imageshack.us/img859/9096/28296836.jpg

http://img156.imageshack.us/img156/1365/84132501.jpg

Related torrents

Torrent NameAddedSizeSeedLeechHealth
1 Year+ - in Movies1.38 GB01
1 Year+ - in Movies1.38 GB05
1 Year+ - in Movies1.38 GB2,269503
1 Year+ - in Movies1.37 GB01
1 Year+ - in Movies1.39 GB00

Comments (0 Comments)




Please login or create a FREE account to post comments

Latest Searches

| black s hardcore | cry innocent | Cosmid 17 02 22 Mia Farr Mias Chair Strip 1080p MP4 YAPG | Vinyl Rip Opera | x265 arrow s05e13 | inna gimme gimme | privatesociety skye stephanie they love good threesome 720p mp4 ktr n1c | kelly price sing love | Armin van buuren strong ones | Carla de Jong Serpent NL EbookePub DMT |