Quick Browse
Movies
TV shows
Music
Games
Applications
Anime
Other
Facebook
Advertising

Friends
Torrent Download
Movie4u
1337x.to
Torrent Downloads




Verified torrent Hulk 2003 HDDVDRIP 720p Hindi~3385VKSH


    Seeders : 0      Leechers : 1
Hash :B4C6FCDD3E6848AC032B1FAA625C202578140C1A
Added :1 Year+ by VKS3385Verified torrent uploader in Movies
Size :2.11 GB
Stream :WATCH ONLINE @ Movie4u


Hulk 2003 HDDVDRIP 720p Hindi~3385VKSH
Free and Fast Download with Usenet 300GB+ free







Trackers List

Tracker NameLast CheckStatusSeedersLeechers
http://tracker.nwps.ws:6969/announce11 months agosuccess00
http://tracker.trackerfix.com/announce11 months agosuccess00
udp://9.rarbg.com:2710/announce11 months agosuccess00
udp://tracker.openbittorrent.com:80/announce11 months agosuccess01
http://bigfoot1942.sektori.org:6969/announce11 months agosuccess00
http://torrent.gresille.org/announce11 months agosuccess00
udp://tracker.coppersurfer.tk:8011 months agosuccess00




Torrent File Content (2 files)


Hulk 2003 HDDVDRip 720p Hindi
     Hulk 2003 HDDVDRIP 720p Hindi.mkv -
2.11 GB

     Sample.mkv -
6.8 MB



Description



http://img340.imageshack.us/img340/1050/hddesirockers.png

http://img62.imageshack.us/img62/5382/roadsignphp.png


http://img121.imageshack.us/img121/4194/280291811082.jpg


http://img836.imageshack.us/img836/3343/25ic0hd1.png


http://img834.imageshack.us/img834/9560/hulkposter006.jpg


Bruce Banner, a brilliant scientist with a cloudy past about his family, is involved in an accident in his laboratory causing him to become exposed to gamma radiation and Nanomeds (A tiny life-form that is supposed to heal wounds but has killed everything with which they have made contact). Confused and curious about his survival, Banner discovers that since the accident, whenever he becomes angry he transforms into a giant green monster destroying everything in sight in an act of fury. Bruce's mysterious past and the answer to why the radiation had this effect becomes revealed to him as his Birth Father David Banner intervenes with hopes to continue experimenting on him.

http://img714.imageshack.us/img714/4783/9k1gty1.png


Eric Bana ... Bruce Banner

Jennifer Connelly ... Betty Ross

Sam Elliott ... Ross

Josh Lucas ... Talbot

Nick Nolte ... Father

Paul Kersey ... Young David Banner

Cara Buono ... Edith Banner

Todd Tesen ... Young Ross

Kevin Rankin ... Harper

Celia Weston ... Mrs. Krensler

Mike Erwin ... Teenage Bruce Banner

Lou Ferrigno ... Security Guard

Stan Lee ... Security Guard

Regi Davis ... Security Guard

Craig Damon ... Security Guard


http://i50.tinypic.com/zvbzx2.jpg


General
Complete name : Hulk 2003 HDDVDRIP 720p Hindi~3385VKSH
Format : Matroska
File size : 2.11 GiB
Duration : 2h 12mn
Overall bit rate : 2 277 Kbps
Encoded date : UTC 2010-08-24 12:18:56
Writing application : mkvmerge v4.2.0 ('No Talking') built on Jul 28 2010 18:38:23
Writing library : libebml v1.0.0 + libmatroska v1.0.0


http://img412.imageshack.us/img412/7057/imdb3.png

[size=3][URL="http://www.imdb.com/title/tt0286716/"]http://www.imdb.com/title/tt0286716/[/URL][/size]

http://img37.imageshack.us/img37/7218/vlcfile.png

Video
ID : 1
Format : AVC
Format/Info : Advanced Video Codec
Format profile : [email protected]
Format settings, CABAC : Yes
Format settings, ReFrames : 8 frames
Muxing mode : Container [email protected]
Codec ID : V_MPEG4/ISO/AVC
Duration : 2h 12mn
Bit rate : 1 968 Kbps
Width : 1 280 pixels
Height : 688 pixels
Display aspect ratio : 1.860
Frame rate : 25.000 fps
Original frame rate : 23.976 fps
Color space : YUV
Chroma subsampling : 4:2:0
Bit depth : 8 bits
Scan type : Progressive
Bits/(Pixel*Frame) : 0.089
Stream size : 1.86 GiB (88%)
Writing library : x264 core 80 r1376 3feaec2


http://img248.imageshack.us/img248/6613/musicfile1.png

Audio
ID : 2
Format : MPEG Audio
Format version : Version 1
Format profile : Layer 3
Codec ID : A_MPEG/L3
Codec ID/Hint : MP3
Duration : 1h 8mn
Bit rate mode : Constant
Bit rate : 224 Kbps
Channel(s) : 2 channels
Sampling rate : 44.1 KHz
Video delay : 2s 600ms
Stream size : 109 MiB (5%)
Writing library : LAME3.96r
Encoding settings : -m s -V 4 -q 2 -lowpass 20 -b 224
Language : Hindi


http://i50.tinypic.com/2qtwdv8.jpg


http://img836.imageshack.us/img836/189/hulk201626.png


http://img405.imageshack.us/img405/4827/hulk201751.png


http://img819.imageshack.us/img819/9964/hulk200941.png


http://img338.imageshack.us/img338/6889/hulk201104.png


http://img836.imageshack.us/img836/641/hulk201311.png



[SIZE=5]Sample Included In The Torrent[/SIZE]

http://i49.tinypic.com/zoap2a.jpg


http://img690.imageshack.us/img690/2538/2s9d1cg.gif

http://i49.tinypic.com/28v8wmr.jpg


http://img205.imageshack.us/img205/91/15880378.png

http://img695.imageshack.us/img695/7097/6sdez7.gif

Related torrents

Torrent NameAddedSizeSeedLeechHealth
1 Year+ - in Movies3.76 GB37
1 Year+ - in Movies2.21 GB00
Verified torrent
1 Year+ - in Movies2.11 GB26
Verified torrent
1 Year+ - in Movies1.95 GB614
Verified torrent
1 Year+ - in Movies6.12 GB617

Comments (0 Comments)




Please login or create a FREE account to post comments

Latest Searches

| Dragon ball super ep 2 eng | the last ship s02 joy | magnificent seven 2016 etrg | Person of Interest S01 1080p BluRay x264 | Say to by | 08 moto 2014 gp netherlands 26 28 jun motogp 2 3 all weekend 1 | usher all falls | FetishKitsch Amenities | mad tv christmas | 1080p Think Twice 2016 |