Quick Browse
Movies
TV shows
Music
Games
Applications
Anime
Other
Facebook
Advertising

Friends
Torrent Download
Movie4u
1337x.to
Torrent Downloads




Verified torrent Man on a Ledge 2012 CAM NEWSOURCE XviD AC3-26K


    Seeders : 1      Leechers : 0
Hash :E600F55680E2E9A68FC0DBE1910DF9E05E95A1FF
Added :1 Year+ by memory100Verified torrent uploader in Movies
Size :1.11 GB
Stream :WATCH ONLINE @ Movie4u


Man on a Ledge 2012 CAM NEWSOURCE XviD AC3-26K
Free and Fast Download with Usenet 300GB+ free







Trackers List

Tracker NameLast CheckStatusSeedersLeechers




Torrent File Content (8 files)


Man on a Ledge 2012 CAM NEWSOURCE XviD AC3-26K
     HDSceneRG.txt -
115 bytes

     Man on a Ledge 2012 CAM NEWSOURCE XviD AC3-26K.avi -
1.09 GB

     Man on a Ledge 2012 CAM NEWSOURCE XviD AC3-26K.nfo -
3.25 KB

     Torrent downloaded from Demonoid.me.txt -
46 bytes

     Torrent downloaded from rarbg.com.txt.txt -
0 bytes

     att-networks.com.txt -
39 bytes

     sample.avi -
24.84 MB

     sceneunderground.org.txt -
77 bytes



Description



http://img819.imageshack.us/img819/5138/manonc.jpg

[code]
Man on a Ledge 2012 CAM NEWSOURCE XviD AC3-26K

Imdb:
http://www.imdb.com/title/tt1568338/

Plot:
As a police psychologist works to talk down an ex-con who is threatening to jump from a Manhattan hotel rooftop, the biggest diamond heist ever committed is in motion...

Sources:
video: P76 Thanks
Audio: NoGRP Thanks

Notes:
added a few filters to the video to make it look nice so take it or leave it.

Greetz:
Xtreme Encode|FYA|ILLUMANTI|CM8|RX|VISION|HDSCENE|NIGHTMAREZ|xTriLL|DTRG|CRYS|REMIXHD|BIDA|RX|REFILL|INSPiRAL|SIC|ZOMBIESZ|HOPE|Anonymous|GooN
To all the people who have helped me :P you know who you are

Anything to offer email us @: [email protected]

Video
ID : 0
Format : MPEG-4 Visual
Format profile : Advanced [email protected]
Format settings, BVOP : 2
Format settings, QPel : No
Format settings, GMC : No warppoints
Format settings, Matrix : Default (H.263)
Codec ID : XVID
Codec ID/Hint : XviD
Duration : 1h 35mn
Bit rate : 1 500 Kbps
Width : 720 pixels
Height : 304 pixels
Display aspect ratio : 2.35:1
Frame rate : 25.000 fps
Color space : YUV
Chroma subsampling : 4:2:0
Bit depth : 8 bits
Scan type : Progressive
Compression mode : Lossy
Bits/(Pixel*Frame) : 0.274
Stream size : 1 021 MiB (92%)
Writing library : XviD 64

Audio
ID : 1
Format : AC-3
Format/Info : Audio Coding 3
Mode extension : CM (complete main)
Codec ID : 2000
Duration : 1h 35mn
Source duration : 1h 35mn
Bit rate mode : Constant
Bit rate : 128 Kbps
Channel(s) : 2 channels
Channel positions : Front: L R
Sampling rate : 44.1 KHz
Bit depth : 16 bits
Compression mode : Lossy
Stream size : 87.1 MiB (8%)
Alignment : Aligned on interleaves
Interleave, duration : 35 ms (0.87 video frame)

[/code]
Screens:
http://i.imgur.com/aPnka.png

http://i.imgur.com/4mmti.png

http://img839.imageshack.us/img839/4194/vlcsnap2012022220h53m08.png

http://img109.imageshack.us/img109/1259/vlcsnap2012022220h53m02.png

http://img138.imageshack.us/img138/3812/vlcsnap2012022220h52m53.png


http://img851.imageshack.us/img851/5503/26ks.jpg

Thank you smallz for banner!

Related torrents

Torrent NameAddedSizeSeedLeechHealth
1 Year+ - in Movies576.4 MB00
1 Year+ - in Movies694.41 MB01
1 Year+ - in Movies694.41 MB00
1 Year+ - in Movies715.87 MB00
Verified torrent
1 Year+ - in Movies1.02 GB00

Comments (0 Comments)




Please login or create a FREE account to post comments

Latest Searches

| Madeline Sheehan Claire C Riley | Nous sommes deux | underworld 1080p 2006 | porno xxx movies | can t have ape drums remix | Designated Survivor S01E09 HDTV x264 LOLeztv | BrazzersExxtra Brazzers Nikki Benz Full Service Station A Parody 06 12 2016 | xqv | lil wayne | X Bitch |