Quick Browse
Movies
TV shows
Music
Games
Applications
Anime
Other
Facebook
Advertising

Friends
Torrent Download
Movie4u
1337x.to
Torrent Downloads




Verified torrent The Devil Inside 2012 CAM NEWSOURCE XVID AC3-26K


    Seeders : 0      Leechers : 0
Hash :1644D5F021A63BA68FCE1060EFC37817AE2CD10E
Added :1 Year+ by memory100Verified torrent uploader in Movies
Size :1.02 GB
Stream :WATCH ONLINE @ Movie4u


The Devil Inside 2012 CAM NEWSOURCE XVID AC3-26K
Free and Fast Download with Usenet 300GB+ free







Trackers List

Tracker NameLast CheckStatusSeedersLeechers




Torrent File Content (7 files)


The Devil Inside 2012 CAM NEWSOURCE XVID AC3-26K
     HDSceneRG.txt -
115 bytes

     The Devil Inside 2012 CAM NEWSOURCE XVID AC3-26K.avi -
1 GB

     The Devil Inside 2012 CAM NEWSOURCE XVID AC3-26K.nfo -
3.26 KB

     Torrent downloaded from Demonoid.me.txt -
46 bytes

     att-networks.com.txt -
39 bytes

     sample.avi -
11.67 MB

     sceneunderground.org.txt -
77 bytes



Description



http://img707.imageshack.us/img707/1549/devilinsidee.jpg

[code]
The Devil Inside 2012 CAM NEWSOURCE XVID AC3-26K

Imdb:
http://www.imdb.com/title/tt1560985/

Plot:
In Italy, a woman becomes involved in a series of unauthorized exorcisms during her mission to discover

what happened to her mother, who allegedly murdered three people during her own exorcism.

Sources:
video-UNKNOWN
AUDIO-INFERNO

Notes:
GLAD TO SEE A NEW SOURCE OUT SAME AUDIO AS BEFORE BT WITH BETTER VIDEO! SO ENJOY.

Greetz:
Xtreme

Encode|FYA|ILLUMANTI|CM8|RX|VISION|HDSCENE|NIGHTMAREZ|xTriLL|DTRG|CRYS|REMIXHD|BIDA|RX|REFILL|INSPiRAL|S

IC|ZOMBIESZ|HOPE|Anonymous

To all the people who have helped me :P you know who you are

Anything to offer email us @: [email protected]

Video
ID : 0
Format : MPEG-4 Visual
Format profile : Advanced [email protected]
Format settings, BVOP : 2
Format settings, QPel : No
Format settings, GMC : No warppoints
Format settings, Matrix : Default (H.263)
Codec ID : XVID
Codec ID/Hint : XviD
Duration : 1h 15mn
Bit rate : 1 700 Kbps
Width : 720 pixels
Height : 304 pixels
Display aspect ratio : 2.35:1
Frame rate : 29.970 fps
Color space : YUV
Chroma subsampling : 4:2:0
Bit depth : 8 bits
Scan type : Progressive
Compression mode : Lossy
Bits/(Pixel*Frame) : 0.259
Stream size : 918 MiB (89%)
Writing library : XviD 63

Audio
ID : 1
Format : AC-3
Format/Info : Audio Coding 3
Mode extension : CM (complete main)
Codec ID : 2000
Duration : 1h 15mn
Bit rate mode : Constant
Bit rate : 192 Kbps
Channel(s) : 2 channels
Channel positions : Front: L R
Sampling rate : 48.0 KHz
Bit depth : 16 bits
Compression mode : Lossy
Stream size : 104 MiB (10%)
Alignment : Aligned on interleaves
Interleave, duration : 32 ms (0.96 video frame)

[/code]
Screens:
http://img694.imageshack.us/img694/1766/vlcsnap2012012117h17m51.png

http://img140.imageshack.us/img140/271/vlcsnap2012012117h17m58.png

http://img252.imageshack.us/img252/1769/vlcsnap2012012117h18m14.png

http://img209.imageshack.us/img209/3753/vlcsnap2012012117h20m27.png


http://img851.imageshack.us/img851/5503/26ks.jpg

Thank you smallz for banner!

Related torrents

Torrent NameAddedSizeSeedLeechHealth
Verified torrent
1 Year+ - in Movies1.1 GB21232
Verified torrent
1 Year+ - in Movies773.94 MB10
Verified torrent
1 Year+ - in Movies1.11 GB10
1 Year+ - in Movies685.58 MB00
1 Year+ - in Movies981.01 MB00

Comments (0 Comments)




Please login or create a FREE account to post comments

Latest Searches

| vampire academy 1 | gigantic 2012 | ac3 kidnap | disco carnival | 1080p tigole constantine | 320Kbps 2016 | 03 carrie underwood | identity creed apk | AE DIL HAI MUSHKIL 2016 x264 DvDRip AC3 5 1 ESub DDR | 12 recipes |