Quick Browse
Movies
TV shows
Music
Games
Applications
Anime
Other
Facebook
Friends
Torrent Download
Free Movies
1337x.to
Torrent Downloads

Verified torrent Albatross 2011 DVDSCR XviD AC3-26K


    Seeders : 0      Leechers : 0
Hash :C1570362670DB71F261A2292BE410A06491508FD
Added :1 Year+ by memory100Verified torrent uploader in Movies
Size :1.26 GB
Stream :Watch Full Movies Online @ Movie4u
Share :


Albatross 2011 DVDSCR XviD AC3-26K
Anonymous and Direct Download 300GB+ free







Warning! Do not Download Torrents Without a VPN!
Your IP Address is .   And Location is
Your Internet Provider and Government can track your torrent Activity!  Hide your IP ADDRESS with a VPN!
We Strongly Recommend Using SpyOFF Torrent VPN to Anonymize your Torrenting. It's FREE For 15 Days!

Note :

Please Update (Trackers Info) Before Downloading Torrents to See Updated Seeders And Leechers for Batter Download Speed.

Trackers List

Tracker NameLast CheckStatusSeedersLeechers




Torrent File Content (7 files)


Albatross 2011 DVDSCR XviD AC3-26K
     Albatross 2011 DVDSCR XviD AC3-26K.avi -
1.22 GB

     Albatross 2011 DVDSCR XviD AC3-26K.nfo -
3.21 KB

     HDSceneRG.txt -
115 bytes

     Sample.avi -
38.55 MB

     Torrent downloaded from Demonoid.me.txt -
46 bytes

     att-networks.com.txt -
39 bytes

     sceneunderground.org.txt -
77 bytes



Description



http://img32.imageshack.us/img32/3089/albatross.jpg

[code]
Albatross 2011 DVDSCR XviD AC3-26K

Imdb:
http://www.imdb.com/title/tt1541149/

Plot:
Beth, a bookish teenager, befriends Emilia, an aspiring novelist who has just arrived in town. Emilia soon begins an affair with Beth's father that threatens to have devastating consequences.

Sources:
PA

Notes:
Encoded the video added a few filters to make it look nice :)

Greetz:
Xtreme Encode|FYA|ILLUMANTI|CM8|RX|VISION|HDSCENE|NIGHTMAREZ|xTriLL|DTRG|CRYS|REMIXHD|BIDA
To all the people who have helped me :P you know who you are

Anything to offer email us @: [email protected]

Video
ID : 0
Format : MPEG-4 Visual
Format profile : Advanced [email protected]
Format settings, BVOP : 2
Format settings, QPel : No
Format settings, GMC : No warppoints
Format settings, Matrix : Default (H.263)
Codec ID : XVID
Codec ID/Hint : XviD
Duration : 1h 29mn
Bit rate : 1 554 Kbps
Width : 640 pixels
Height : 264 pixels
Display aspect ratio : 2.40:1
Frame rate : 23.976 fps
Color space : YUV
Chroma subsampling : 4:2:0
Bit depth : 8 bits
Scan type : Progressive
Compression mode : Lossy
Bits/(Pixel*Frame) : 0.384
Stream size : 1 000 MiB (80%)
Writing library : XviD 63

Audio
ID : 1
Format : AC-3
Format/Info : Audio Coding 3
Mode extension : CM (complete main)
Codec ID : 2000
Duration : 1h 29mn
Bit rate mode : Constant
Bit rate : 384 Kbps
Channel(s) : 2 channels
Channel positions : Front: L R
Sampling rate : 48.0 KHz
Bit depth : 16 bits
Compression mode : Lossy
Stream size : 247 MiB (20%)
Alignment : Aligned on interleaves
Interleave, duration : 32 ms (0.77 video frame)

[/code]
Screens:
http://img197.imageshack.us/img197/50/vlcsnap2012011321h32m38.png

http://img836.imageshack.us/img836/879/vlcsnap2012011321h32m41.png

http://img221.imageshack.us/img221/3848/vlcsnap2012011321h32m45.png

http://img685.imageshack.us/img685/9939/vlcsnap2012011321h32m51.png

http://img828.imageshack.us/img828/1439/vlcsnap2012011321h33m01.png


http://img851.imageshack.us/img851/5503/26ks.jpg

Thank you smallz for banner!

Related torrents

Torrent NameAddedSizeSeedLeechHealth
1 Good
Verified torrent
1 Year+ - in Movies1.66 GB1,8354,828
Verified torrent
1 Year+ - in Movies1.93 GB10
1 Year+ - in Movies2.24 GB5547
Verified torrent
1 Year+ - in Movies2.24 GB00
1 Year+ - in Movies1.86 GB00

Comments (0 Comments)




Please login or create a FREE account to post comments

Latest Searches

| iextv resident evil | j hartmann | UNRATED 720 | ale s01e03 | Auslogics Disk Defrag 7 1 2 | The Texas Vibrator Massacre | Kidz Bop Kidz Bop 24 2013 | 2014 une nouvelle amie | tia grool | elo showdown |