Quick Browse
Movies
TV shows
Music
Games
Applications
Anime
Other
Facebook
Advertising

Friends
Torrent Download
Movie4u
1337x.to
Torrent Downloads




Verified torrent Contraband 2012 CAM READNFO XviD AC3-26K


    Seeders : 2340      Leechers : 1091
Hash :0233452D112E1AF0C4598DA20285E01C135BAC35
Added :1 Year+ by memory100Verified torrent uploader in Movies
Size :1.86 GB
Stream :WATCH ONLINE @ Movie4u


Contraband 2012 CAM READNFO XviD AC3-26K
Free and Fast Download with Usenet 300GB+ free







Trackers List

Tracker NameLast CheckStatusSeedersLeechers




Torrent File Content (7 files)


Contraband 2012 CAM READNFO XviD AC3-26K
     Contraband 2012 CAM READNFO XviD AC3-26K.AVI -
1.83 GB

     Contraband 2012 CAM READNFO XviD AC3-26K.nfo -
3.57 KB

     HDSceneRG.txt -
115 bytes

     Torrent downloaded from Demonoid.me.txt -
46 bytes

     att-networks.com.txt -
39 bytes

     sample.avi -
36.63 MB

     sceneunderground.org.txt -
77 bytes



Description



http://img11.imageshack.us/img11/719/contrab.jpg


Contraband 2012 CAM READNFO XviD AC3-26K

Imdb:
http://www.imdb.com/title/tt1524137/

Plot:
To protect his brother-in-law from a drug lord, a former smuggler heads to Panama to score millions of dollars in counterfeit bills.

Sources:
VIDEO RUSSIAN- THNXS!!
THANKS "YOU KNOW WHO" FOR AUDIO- THNXS M8 AND THNXS LOGICURL FOR THE HELP IN THE SYNCING!

Notes:
WHY READNFO WELL THE AUDIO GIVEN WAS VERY BAD!! WHICH WAS CLEANED UP... THEN WENT AHEAD AND ENCODED THE VIDEO!! MADE IT LOOK NICE ADDED A FEW VIDEO/ COLOR FILTERS TO THE VIDEO...
THEN SYCNED THE AUDIO TO THE VIDEO.. IT TOOK US 34 CUTS TO GET IT ALL IN SYNC! SO FOR NOW ENJOY.. NEW SOURCE SOON :p

Greetz:
Xtreme Encode|FYA|ILLUMANTI|CM8|RX|VISION|HDSCENE|NIGHTMAREZ|xTriLL|DTRG|CRYS|REMIXHD|BIDA|RX|REFILL|INSPiRAL|SIC
To all the people who have helped me :P you know who you are

Anything to offer email us @: [email protected]

Video
ID : 0
Format : MPEG-4 Visual
Format profile : Advanced [email protected]
Format settings, BVOP : 2
Format settings, QPel : No
Format settings, GMC : No warppoints
Format settings, Matrix : Default (H.263)
Codec ID : XVID
Codec ID/Hint : XviD
Duration : 1h 43mn
Bit rate : 2 300 Kbps
Width : 720 pixels
Height : 304 pixels
Display aspect ratio : 2.35:1
Frame rate : 25.000 fps
Color space : YUV
Chroma subsampling : 4:2:0
Bit depth : 8 bits
Scan type : Progressive
Compression mode : Lossy
Bits/(Pixel*Frame) : 0.420
Stream size : 1.66 GiB (91%)
Writing library : XviD 63

Audio
ID : 1
Format : AC-3
Format/Info : Audio Coding 3
Mode extension : CM (complete main)
Codec ID : 2000
Duration : 1h 43mn
Bit rate mode : Constant
Bit rate : 224 Kbps
Channel(s) : 2 channels
Channel positions : Front: L R
Sampling rate : 44.1 KHz
Bit depth : 16 bits
Compression mode : Lossy
Stream size : 165 MiB (9%)
Alignment : Aligned on interleaves
Interleave, duration : 40 ms (1.00 video frame



Screens:
http://img710.imageshack.us/img710/8063/vlcsnap2012011519h17m17.png

http://img24.imageshack.us/img24/1511/vlcsnap2012011519h17m25.png

http://img560.imageshack.us/img560/7886/vlcsnap2012011519h17m40.png

http://img714.imageshack.us/img714/1168/vlcsnap2012011519h17m48.png

http://img835.imageshack.us/img835/9900/vlcsnap2012011519h17m54.png

http://img593.imageshack.us/img593/9753/vlcsnap2012011519h18m04.png



http://img851.imageshack.us/img851/5503/26ks.jpg

Thank you smallz for banner!

Related torrents

Torrent NameAddedSizeSeedLeechHealth
7 months ago - in Movies1.56 GB00
1 Year+ - in Movies896.86 MB11
1 Year+ - in Movies895.86 MB10
Verified torrent
1 Year+ - in Movies1.56 GB545164
Verified torrent
1 Year+ - in Movies1.23 GB11128

Comments (1 comment)




carl1978
» Downloaded this torrent Downloaded this torrent » Voted Bad Voted Bad for this torrent for this torrent

Added 1 Year+
film transfer
Please login or create a FREE account to post comments

Latest Searches

| ronald mcnair | Rachel Starr The Ultimate Adventure | dumbo x265 | weapons words | genghis khan earth | PropertySex Naomi Woods The Best Worst Realtor XXX | The Laws Of Love 2014 | AGirlKnows 16 11 25 Keira And Laura Crystal 1080p MP4 KTR | kick ass I | Battling Butler 1926 |