Quick Browse
Movies
TV shows
Music
Games
Applications
Anime
Other
Facebook
Advertising

Friends
Torrent Download
Movie4u
1337x.to
Torrent Downloads




Dream House 2011 CAM V2 XviD-ILLUMINATI


    Seeders : 1      Leechers : 1
Hash :45858CE3EBE029727EB60CA4DCD13B9513E10AE4
Added :1 Year+ by jumbotorrentsxVerified torrent uploader in Movies
Size :1.23 GB
Stream :WATCH ONLINE @ Movie4u


Dream House 2011 CAM V2 XviD-ILLUMINATI
Free and Fast Download with Usenet 300GB+ free







Trackers List

Tracker NameLast CheckStatusSeedersLeechers




Torrent File Content (10 files)


Dream House 2011 CAM V2 XviD-ILLUMINATI
    Screenshots
          96018490.png -
230.23 KB

          73803041.png -
188.54 KB

          85160311.png -
159.85 KB

          73644081.png -
159.51 KB

          34655210.png -
158.8 KB

          60519285.png -
117.89 KB

     Dream House 2011 CAM V2 XviD-ILLUMINATI.avi -
1.23 GB

     Dream House 2011 CAM V2 XviD-ILLUMINATI.nfo -
1.27 KB

     Torrent downloaded from Limetorrents.com.txt -
48 bytes

     Torrent downloaded from Demonoid.me.txt -
46 bytes



Description



http://img847.imageshack.us/img847/2720/postermo.jpg


http://img594.imageshack.us/img594/2550/60519285.png


http://img193.imageshack.us/img193/3236/73803041.png


http://img444.imageshack.us/img444/8919/85160311.png


[code]
Dream House 2011 CAM V2 XviD - ILLUMINATI

Video
ID : 0
Format : MPEG-4 Visual
Format profile : Advanced [email protected]
Format settings, BVOP : 2
Format settings, QPel : No
Format settings, GMC : No warppoints
Format settings, Matrix : Default (H.263)
Muxing mode : Packed bitstream
Codec ID : XVID
Codec ID/Hint : XviD
Duration : 1h 21mn
Bit rate : 1 957 Kbps
Width : 720 pixels
Height : 304 pixels
Display aspect ratio : 2.35:1
Frame rate : 25.000 fps
Color space : YUV
Chroma subsampling : 4:2:0
Bit depth : 8 bits
Scan type : Progressive
Compression mode : Lossy
Bits/(Pixel*Frame) : 0.358
Stream size : 1.12 GiB (93%)
Writing library : XviD 64

Audio
ID : 1
Format : MPEG Audio
Format version : Version 1
Format profile : Layer 3
Mode : Joint stereo
Mode extension : MS Stereo
Codec ID : 55
Codec ID/Hint : MP3
Duration : 1h 21mn
Bit rate mode : Constant
Bit rate : 128 Kbps
Channel(s) : 2 channels
Sampling rate : 44.1 KHz
Compression mode : Lossy
Stream size : 75.0 MiB (6%)
Alignment : Split accross interleaves
Interleave, duration : 40 ms (1.00 video frame)

Same video as V1 but new cam audio

Plot:
Soon after moving into their seemingly idyllic new home, a family learns of a brutal crime committed against former residents of the dwelling.
[/code]

Related torrents

Torrent NameAddedSizeSeedLeechHealth
1 Year+ - in Movies1.23 GB05
1 Year+ - in Movies1.23 GB1102
1 Year+ - in Movies1.23 GB13
Verified torrent
1 Year+ - in Movies1.23 GB494394
1 Good
1 Year+ - in Movies1.21 GB3407

Comments (0 Comments)




Please login or create a FREE account to post comments

Latest Searches

| Hot and her younger lover | chicago fire s03e18 1080p | Billy Roses Jumbo | Facesitting The Cheater Chantelle Fox 1080p mp4 | flower shop mystery dearly depotted 2016 | uncharted 4 pc | Thirst Quenching Load | 13 Hours The Secret Soldiers of Benghazi 720p BluRay x264 | the 1986d | flower shop mystery snipped in the bud 2016 |