Quick Browse
Movies
TV shows
Music
Games
Applications
Anime
Other
Facebook
Advertising

Friends
Torrent Download
Movie4u
1337x.to
Torrent Downloads




Verified torrent Safe House 2012 TS V3 NEW VIDEO XviD-26k


    Seeders : 410      Leechers : 48
Hash :07A076A3C76E919D1F0D91B348C467A32F027A71
Added :1 Year+ by memory100Verified torrent uploader in Movies
Size :1.37 GB
Stream :WATCH ONLINE @ Movie4u


Safe House 2012 TS V3 NEW VIDEO XviD-26k
Free and Fast Download with Usenet 300GB+ free







Trackers List

Tracker NameLast CheckStatusSeedersLeechers




Torrent File Content (13 files)


Safe House 2012 TS V3 NEW VIDEO XviD-26k
     1.png -
247.14 KB

     2.png -
136.06 KB

     26k nfo.nfo -
3.59 KB

     3.png -
151.62 KB

     4.png -
204.62 KB

     att-networks.com.txt -
39 bytes

     HDSceneRG.txt -
115 bytes

     Safe House 2012 TS V3 NEW VIDEO XviD-26k.avi -
1.37 GB

     Safe House 2012 TS V3 NEW VIDEO XviD-26k.jpg -
108.17 KB

     sceneunderground.org.txt -
77 bytes

     Torrent downloaded from Demonoid.me.txt -
46 bytes

     Torrent downloaded from rarbg.com.txt.txt -
0 bytes

     YouTube Latest Releases And Archive.txt -
80 bytes



Description



http://img571.imageshack.us/img571/2377/safehouseh.jpg


[code]

Safe House 2012 TS V3 NEW VIDEO XviD-26k

http://www.imdb.com/title/tt1599348/

Plot:
A young CIA agent is tasked with looking after a fugitive in a safe house.
But when the safe house is attacked, he finds himself on the run with his charge.

Sources - VIDEO: P76.....Thanks :P
AUDIO: littlebird....thank

Format : AVI
Format/Info : Audio Video Interleave
File size : 1.37 GiB
Duration : 1h 49mn
Overall bit rate : 1 799 Kbps
Writing library : VirtualDub build 32839/release

Video
ID : 0
Format : MPEG-4 Visual
Format profile : Advanced [email protected]
Format settings, BVOP : 2
Format settings, QPel : No
Format settings, GMC : No warppoints
Format settings, Matrix : Default (H.263)
Muxing mode : Packed bitstream
Codec ID : XVID
Codec ID/Hint : XviD
Duration : 1h 49mn
Bit rate : 1 661 Kbps
Width : 720 pixels
Height : 304 pixels
Display aspect ratio : 2.35:1
Frame rate : 25.000 fps
Color space : YUV
Chroma subsampling : 4:2:0
Bit depth : 8 bits
Scan type : Progressive
Compression mode : Lossy
Bits/(Pixel*Frame) : 0.304
Stream size : 1.27 GiB (92%)
Writing library : XviD 1.2.1 (UTC 2008-12-04)

Audio
ID : 1
Format : MPEG Audio
Format version : Version 1
Format profile : Layer 3
Codec ID : 55
Codec ID/Hint : MP3
Duration : 1h 49mn
Bit rate mode : Constant
Bit rate : 128 Kbps
Channel(s) : 2 channels
Sampling rate : 44.1 KHz
Compression mode : Lossy
Stream size : 99.9 MiB (7%)
Alignment : Split accross interleaves
Interleave, duration : 40 ms (1.00 video frame)
Writing library : LAME3.98.4UUUUUU'wà




Notes -

crop, resize, degrain, denoise, RGB,levels, brightness, contrast ,sharpen.. then
just synced and muxed littlebirds LiNE to it... enjoy

[/code]

Screens:
http://i.imgur.com/BJCki.png

http://img708.imageshack.us/img708/9052/31555812.png

http://img217.imageshack.us/img217/7223/11172109.png

http://img828.imageshack.us/img828/6674/12422549.png

http://img580.imageshack.us/img580/7349/safehouse2012tsv3newvid.jpg


Greetz:
Xtreme Encode|FYA|ILLUMANTI|CM8|RX|VISI​ON|HDSCENE|xTriLL|DTRG|CRYS|REMIX​HD|BIDA|RX|REFILL|INSPiRAL|SIC|
|HO​PE|Anonymous|GooN|miRaGe
To all the people who have helped me you know who you are

Anything to offer email us @: [email protected]


http://img851.imageshack.us/img851/5503/26ks.jpg

Thank you smallz for banner!

Related torrents

Torrent NameAddedSizeSeedLeechHealth
Verified torrent
1 Year+ - in Movies1.2 GB10
Verified torrent
1 Year+ - in Movies1.37 GB87654
Verified torrent
1 Year+ - in Movies1.43 GB522116
1 Year+ - in Movies697 MB10
1 Year+ - in Movies779.47 MB02

Comments (0 Comments)




Please login or create a FREE account to post comments

Latest Searches

| the power of few 2013 720p bluray dts x264 publichd | Ninja Gaiden Sigma PS3 | sex video full length | a tribe called oh my god | pooja songs hindi | HotAndMean Alena Croft Alyssa Lynn Stevie Shae | Justin Mirror | maya bijou pool day | kettering incident prime | mistress america 2015 swesub 720p brrip x264 mp4 |