Quick Browse
Movies
TV shows
Music
Games
Applications
Anime
Other
Facebook
Advertising

Friends
Torrent Download
Movie4u
1337x.to
Torrent Downloads




Verified torrent Young Adult 2011 720P CAM READNFO Xvid AC3-26K


    Seeders : 1      Leechers : 0
Hash :CB7A1A91CEBCBB83F9A9498EF199426B043FF892
Added :1 Year+ by memory100Verified torrent uploader in Movies
Size :1.79 GB
Stream :WATCH ONLINE @ Movie4u


Young Adult 2011 720P CAM READNFO Xvid AC3-26K
Free and Fast Download with Usenet 300GB+ free







Trackers List

Tracker NameLast CheckStatusSeedersLeechers




Torrent File Content (9 files)


Young Adult 2011 720P CAM READNFO Xvid AC3-26K
     HDSceneRG.txt -
115 bytes

     Torrent downloaded from Demonoid.me.txt -
46 bytes

     Torrent downloaded from godlikeproductions.com.txt -
0 bytes

     Torrent downloaded from rarbg.com.txt.txt -
0 bytes

     Young Adult 2011 720P CAM READNFO Xvid AC3-26K.avi -
1.74 GB

     Young Adult 2011 720P CAM READNFO Xvid AC3-26K.nfo -
3.42 KB

     att-networks.com.txt -
39 bytes

     sample.avi -
51.05 MB

     sceneunderground.org.txt -
77 bytes



Description



http://img268.imageshack.us/img268/4176/youngmz.jpg

[code]
Young Adult 2011 720P CAM READNFO Xvid AC3-26K

Imdb:
http://www.imdb.com/title/tt1430607/

Plot:
Soon after her divorce, a fiction writer returns to her home in small-town Minnesota, looking to rekindle a romance with her ex-boyfriend, who is now happily married and has a newborn daughter.

Sources:
THNXS TO A SPECIAL FRIEND !!

Notes:
WELL HERE IS HD CAM FOR THIS AND THE LAST YOU WILL SEE UNTIL RETAIL!!
VIDEO WAS VERY DARK FOR A HD CAM!!! ROTATED, CROPPED .EXTRA...
SO BOTTOM LINE ADDED FEW FILTERS TO IT TO MAKE IT LOOK NICE!! SO TAKE IT OR LEAVE IT !!!!
CHECK SAMPLE FOR QUALITY!

Greetz:
Xtreme Encode|FYA|ILLUMANTI|CM8|RX|VISION|HDSCENE|NIGHTMAREZ|xTriLL|DTRG|CRYS|REMIXHD|BIDA|RX|REFILL|INSPiRAL|SIC|ZOMBIESZ|HOPE|Anonymous|GooN
To all the people who have helped me :P you know who you are

Anything to offer email us @: [email protected]

Video
ID : 0
Format : MPEG-4 Visual
Format profile : Advanced [email protected]
Format settings, BVOP : 2
Format settings, QPel : No
Format settings, GMC : No warppoints
Format settings, Matrix : Default (H.263)
Codec ID : XVID
Codec ID/Hint : XviD
Duration : 1h 27mn
Bit rate : 2 561 Kbps
Width : 1 280 pixels
Height : 608 pixels
Display aspect ratio : 2.2:1
Frame rate : 59.940 fps
Color space : YUV
Chroma subsampling : 4:2:0
Bit depth : 8 bits
Scan type : Progressive
Compression mode : Lossy
Bits/(Pixel*Frame) : 0.055
Stream size : 1.59 GiB (91%)
Writing library : XviD 64

Audio
ID : 1
Format : AC-3
Format/Info : Audio Coding 3
Mode extension : CM (complete main)
Codec ID : 2000
Duration : 1h 27mn
Source duration : 1h 27mn
Bit rate mode : Constant
Bit rate : 224 Kbps
Channel(s) : 2 channels
Channel positions : Front: L R
Sampling rate : 44.1 KHz
Bit depth : 16 bits
Compression mode : Lossy
Stream size : 142 MiB (8%)
Alignment : Aligned on interleaves
Interleave, duration : 35 ms (2.09 video frames)

[/code]
Screens:
http://i.imgur.com/4nByh.png

http://i.imgur.com/PpMQN.png

http://i.imgur.com/HbdHn.jpg

http://img696.imageshack.us/img696/9968/vlcsnap2012021821h08m52.png

http://img692.imageshack.us/img692/1714/vlcsnap2012021821h08m14ld.png

http://img26.imageshack.us/img26/9832/vlcsnap2012021821h09m05.png


http://img851.imageshack.us/img851/5503/26ks.jpg

Thank you smallz for banner!

Related torrents

Torrent NameAddedSizeSeedLeechHealth
1 Year+ - in Movies843.86 MB20
1 Year+ - in Movies1.48 GB165132
Verified torrent
1 Year+ - in Movies1.61 GB20
Verified torrent
1 Year+ - in Movies1.1 GB00
Verified torrent
1 Year+ - in Movies1.56 GB00

Comments (0 Comments)




Please login or create a FREE account to post comments

Latest Searches

| thomas nast | Peter thief | The admiral korea | secret life of pets english 2016 | LatinaSexTapes Marta LaCroft | JacquieEtMichelTV Dominique | robert e stein theory of constraints applications in quality manufacturing | brazilian 18 year old | will you be quiet | dej loaf all hands |