Quick Browse
Movies
TV shows
Music
Games
Applications
Anime
Other

Donate and Support

Friends
Torrents.me
Torrent Download
Free Movies
1337x
RARBG
Torrent Downloads

Verified torrent RAAT 1992 DVDRIP XVID UNTOUCH AC3 Striker WBZ


    Seeders : 1      Leechers : 0
Hash :A262732577A98DF5109BC0BC7FCF818405D8A98C
Added :1 Year+ by striker123Verified torrent uploader in Movies
Size :1.23 GB
Stream :Watch Full Movies Online @ Movie4u
Share :


RAAT 1992 DVDRIP XVID UNTOUCH AC3 Striker WBZ
Anonymous and Direct Download 300GB+ free







Warning! Do not Download Torrents Without a VPN!
Your IP Address is .   And Location is
Your Internet Provider and Government can track your torrent Activity!  Hide your IP ADDRESS with a VPN!
We Strongly Recommend Using SpyOFF Torrent VPN to Anonymize your Torrenting. It's FREE For 15 Days!

Note :

Please Update (Trackers Info) Before Downloading Torrents to See Updated Seeders And Leechers for Batter Download Speed.

Trackers List

Tracker NameLast CheckStatusSeedersLeechers




Torrent File Content (12 files)


RAAT 1992 DVDRIP XVID UNTOUCH AC3 Striker WBZ
     RAAT 1992 DVDRIP XVID UNTOUCH AC3 Striker WBZ.avi -
1.21 GB

     Sample.avi -
22.96 MB

    Screens
          1.jpg -
23.98 KB

          10.jpg -
18.93 KB

          2.jpg -
29.7 KB

          3.jpg -
24.71 KB

          4.jpg -
18.08 KB

          5.jpg -
21.64 KB

          6.jpg -
22.77 KB

          7.jpg -
25 KB

          8.jpg -
26.72 KB

          9.jpg -
31.42 KB



Description



http://1.bp.blogspot.com/_gHONeKH0ONQ/SOb0RhAugQI/AAAAAAAAABE/SxYqO8_Js1I/s400/RAAT.jpg


[code]General
Format : AVI
Format/Info : Audio Video Interleave
File size : 1.21 GiB
Duration : 2h 7mn
Overall bit rate : 1 352 Kbps

Video
ID : 0
Format : MPEG-4 Visual
Format profile : Advanced [email protected]
Format settings, BVOP : 2
Format settings, QPel : No
Format settings, GMC : No warppoints
Format settings, Matrix : Default (H.263)
Codec ID : XVID
Codec ID/Hint : XviD
Duration : 2h 7mn
Bit rate : 960 Kbps
Width : 640 pixels
Height : 304 pixels
Display aspect ratio : 2.2:1
Frame rate : 29.970 fps
Color space : YUV
Chroma subsampling : 4:2:0
Bit depth : 8 bits
Scan type : Progressive
Compression mode : Lossy
Bits/(Pixel*Frame) : 0.165
Stream size : 878 MiB (71%)
Writing library : XviD 1.2.1 (UTC 2008-12-04)

Audio
ID : 1
Format : AC-3
Format/Info : Audio Coding 3
Mode extension : CM (complete main)
Codec ID : 2000
Duration : 2h 7mn
Bit rate mode : Constant
Bit rate : 384 Kbps
Channel(s) : 6 channels
Channel positions : Front: L C R, Side: L R, LFE
Sampling rate : 48.0 KHz
Bit depth : 16 bits
Compression mode : Lossy
Stream size : 351 MiB (28%)
Alignment : Aligned on interleaves
Interleave, duration : 64 ms (1.92 video frames)
Interleave, preload duration : 192 ms
Title : Striker[WBZ] [/code]

http://pic.phyrefile.com/s/sh/shahaz/2011/04/12/1_008.jpg

http://pic.phyrefile.com/s/sh/shahaz/2011/04/12/2_008.jpg

http://pic.phyrefile.com/s/sh/shahaz/2011/04/12/3_007.jpg

http://pic.phyrefile.com/s/sh/shahaz/2011/04/12/4_007.jpg

http://pic.phyrefile.com/s/sh/shahaz/2011/04/12/5_007.jpg

http://pic.phyrefile.com/s/sh/shahaz/2011/04/12/6_007.jpg

http://pic.phyrefile.com/s/sh/shahaz/2011/04/12/7_007.jpg

http://pic.phyrefile.com/s/sh/shahaz/2011/04/12/8_007.jpg

http://pic.phyrefile.com/s/sh/shahaz/2011/04/12/9_007.jpg

http://pic.phyrefile.com/s/sh/shahaz/2011/04/12/10_007.jpg


Related torrents

Torrent NameAddedSizeSeedLeechHealth
Verified torrent
1 Year+ - in Movies1.47 GB11
Verified torrent
1 Year+ - in Movies1.47 GB00
Verified torrent
1 Year+ - in Movies1.48 GB10
Verified torrent
1 Year+ - in Movies1.38 GB10
Verified torrent
1 Year+ - in Movies1.48 GB10

Comments (0 Comments)




Please login or create a FREE account to post comments

Latest Searches

| The Denims | dvdrip the apostle | knock vs | harry potter the game | Datura Divine Making you WANT to Pay | the scooby and scrappy doo show | calm down t | camel space | Juicy Jazzi | Anthony Bourdain Parts Unknown S02E08 720p HDTV x264 2HD |